<?xml version="1.0" standalone="no"?>
<!DOCTYPE svg PUBLIC "-//W3C//DTD SVG 1.1//EN" "http://www.w3.org/Graphics/SVG/1.1/DTD/svg11.dtd" >
<svg xmlns="http://www.w3.org/2000/svg" xmlns:xlink="http://www.w3.org/1999/xlink" version="1.1">
<metadata></metadata>
<defs>
<font id="notokr-blackregular" horiz-adv-x="920" >
<font-face units-per-em="1000" ascent="800" descent="-200" />
<missing-glyph horiz-adv-x="229" />
<glyph unicode=" "  horiz-adv-x="229" />
<glyph unicode="&#x09;" horiz-adv-x="229" />
<glyph unicode="&#xa0;" horiz-adv-x="229" />
<glyph unicode="!" horiz-adv-x="397" d="M141 270l-26 338l-6 158h179l-6 -158l-26 -338h-115zM198 -14q-45 0 -75 32t-30 79q0 46 30 78t75 32q46 0 76 -32t30 -78q0 -47 -30 -79t-76 -32z" />
<glyph unicode="&#x22;" horiz-adv-x="631" d="M127 393l-35 233l-6 158h179l-6 -158l-35 -233h-97zM407 393l-35 233l-6 158h179l-6 -158l-35 -233h-97z" />
<glyph unicode="#" horiz-adv-x="609" d="M98 0l25 211h-84v113h97l14 121h-88v113h104l23 185h101l-22 -185h114l23 185h101l-21 -185h89v-113h-103l-16 -121h96v-113h-109l-25 -211h-103l25 211h-113l-26 -211h-102zM238 324h114l15 121h-114z" />
<glyph unicode="$" horiz-adv-x="609" d="M532 642l-88 -102q-62 56 -123 56q-81 0 -81 -69q0 -27 31 -49.5t75 -42.5t88 -45t75 -69.5t31 -104.5q0 -85 -45.5 -144t-132.5 -78v-119h-117v113q-122 15 -203 88l78 120q87 -66 161 -66q89 0 89 73q0 30 -31 54.5t-75 46t-87.5 47t-74.5 68.5t-31 100q0 85 46 141.5 t128 73.5v118h117v-116q95 -14 170 -94z" />
<glyph unicode="%" horiz-adv-x="985" d="M216 285q-83 0 -135.5 64t-52.5 174t52 172.5t136 62.5t136.5 -63t52.5 -172q0 -110 -53 -174t-136 -64zM216 383q65 0 65 140q0 137 -65 137t-65 -137q0 -140 65 -140zM242 -14l401 772h102l-402 -772h-101zM770 -14q-83 0 -135.5 64t-52.5 174q0 109 52.5 172.5 t135.5 63.5t135.5 -63.5t52.5 -172.5q0 -110 -52.5 -174t-135.5 -64zM770 85q64 0 64 139q0 137 -64 137q-66 0 -66 -137q0 -139 66 -139z" />
<glyph unicode="&#x26;" horiz-adv-x="772" d="M196 211q0 -40 28.5 -64.5t76.5 -24.5q42 0 87 25q-81 64 -148 146q-44 -42 -44 -82zM263 562q0 -40 23 -84q44 26 67 51t23 58q0 54 -49 54q-27 0 -45.5 -21.5t-18.5 -57.5zM750 130l-42 -144q-89 16 -194 74q-101 -74 -235 -74q-119 0 -185.5 62t-66.5 152 q0 125 135 209q-45 84 -45 153q0 82 57 139t150 57q86 0 137 -46.5t51 -124.5q0 -66 -40.5 -113.5t-113.5 -96.5q58 -65 143 -127q56 75 84 174h162q-42 -139 -124 -249q76 -38 127 -45z" />
<glyph unicode="'" horiz-adv-x="351" d="M127 393l-35 233l-6 158h179l-6 -158l-35 -233h-97z" />
<glyph unicode="(" horiz-adv-x="400" d="M232 -205q-151 247 -151 523t151 523l111 -46q-119 -212 -119 -477t119 -477z" />
<glyph unicode=")" horiz-adv-x="400" d="M168 -205l-111 46q119 212 119 477t-119 477l111 46q151 -247 151 -523t-151 -523z" />
<glyph unicode="*" horiz-adv-x="529" d="M171 388l-74 54l68 119l-125 58l29 87l134 -29l15 138h93l14 -138l135 29l28 -87l-126 -58l69 -119l-73 -54l-94 103z" />
<glyph unicode="+" horiz-adv-x="609" d="M239 105v210h-200v125h200v209h130v-209h201v-125h-201v-210h-130z" />
<glyph unicode="," horiz-adv-x="351" d="M185 7h-9q-44 0 -75 27t-31 73q0 44 32 72t79 28q58 0 89.5 -43.5t31.5 -122.5q0 -97 -55 -167t-158 -101l-36 95q63 22 97.5 59t34.5 80z" />
<glyph unicode="-" horiz-adv-x="383" d="M50 227v125h283v-125h-283z" />
<glyph unicode="." horiz-adv-x="351" d="M176 -14q-46 0 -76 32t-30 79q0 46 30 78t76 32q45 0 75.5 -32t30.5 -78q0 -47 -30.5 -79t-75.5 -32z" />
<glyph unicode="/" horiz-adv-x="385" d="M15 -183l220 995h116l-220 -995h-116z" />
<glyph unicode="0" horiz-adv-x="609" d="M304 -14q-121 0 -192 101t-71 289q0 187 71 284.5t192 97.5t192.5 -98t71.5 -284q0 -188 -71.5 -289t-192.5 -101zM304 124q45 0 70.5 55t25.5 197q0 73 -7.5 123t-21 76t-29.5 36t-38 10q-29 0 -48.5 -18t-33 -74t-13.5 -153q0 -142 25 -197t70 -55z" />
<glyph unicode="1" horiz-adv-x="609" d="M78 0v144h158v423h-137v110q108 20 184 67h131v-600h134v-144h-470z" />
<glyph unicode="2" horiz-adv-x="609" d="M42 0v102q155 141 233 238.5t78 173.5q0 50 -26 77.5t-71 27.5q-60 0 -126 -72l-97 96q57 60 113.5 87.5t133.5 27.5q109 0 176.5 -64t67.5 -170q0 -158 -224 -384q74 10 121 10h137v-150h-516z" />
<glyph unicode="3" horiz-adv-x="609" d="M279 -14q-166 0 -255 104l82 112q75 -72 155 -72q53 0 83.5 22t30.5 63q0 52 -40 77t-150 25v125q91 0 129 25.5t38 72.5q0 79 -85 79q-61 0 -133 -62l-90 109q109 92 231 92q118 0 186.5 -53.5t68.5 -151.5q0 -116 -120 -164v-5q66 -20 105 -66t39 -115 q0 -100 -79.5 -158.5t-195.5 -58.5z" />
<glyph unicode="4" horiz-adv-x="609" d="M192 321h142v109l7 165h-4q-33 -74 -60 -127zM583 321v-135h-83v-186h-166v186h-312v123l259 435h219v-423h83z" />
<glyph unicode="5" horiz-adv-x="609" d="M285 -14q-155 0 -260 103l81 112q75 -71 153 -71q55 0 86 29.5t31 86.5q0 55 -30 85t-79 30q-30 0 -50.5 -7t-54.5 -29l-78 51l19 368h418v-148h-265l-11 -126q37 15 77 15q101 0 166.5 -60t65.5 -175q0 -121 -78.5 -192.5t-190.5 -71.5z" />
<glyph unicode="6" horiz-adv-x="609" d="M320 119q38 0 62 29.5t24 89.5q0 109 -89 109q-64 0 -105 -67q19 -161 108 -161zM559 669l-94 -105q-19 21 -50.5 36.5t-60.5 15.5q-136 0 -145 -217q26 33 67 53t75 20q98 0 158 -59t60 -175q0 -115 -70.5 -183.5t-174.5 -68.5q-54 0 -102.5 22t-88.5 66t-63.5 119 t-23.5 173q0 191 85.5 291.5t210.5 100.5q130 0 217 -89z" />
<glyph unicode="7" horiz-adv-x="609" d="M179 0q11 194 51 325t141 271h-320v148h510v-108q-51 -61 -86 -118.5t-56 -108.5t-33.5 -120t-18 -129.5t-9.5 -159.5h-179z" />
<glyph unicode="8" horiz-adv-x="609" d="M303 -14q-110 0 -182.5 55.5t-72.5 143.5q0 123 122 188v5q-97 72 -97 179q0 92 65.5 146.5t170.5 54.5q101 0 162 -54.5t61 -144.5q0 -50 -26.5 -93.5t-67.5 -71.5v-5q125 -65 125 -201q0 -87 -72 -144.5t-188 -57.5zM348 437q40 49 40 110q0 41 -22.5 64.5t-61.5 23.5 q-32 0 -53.5 -20t-21.5 -58q0 -42 29.5 -69t89.5 -51zM307 110q41 0 66 21.5t25 63.5q0 45 -34 71.5t-114 60.5q-50 -48 -50 -121q0 -44 31 -70t76 -26z" />
<glyph unicode="9" horiz-adv-x="609" d="M290 397q65 0 105 70q-19 158 -108 158q-38 0 -62.5 -29t-24.5 -90q0 -57 24.5 -83t65.5 -26zM48 75l93 106q20 -21 51.5 -36t62.5 -15q134 0 143 217q-26 -34 -67 -54.5t-75 -20.5q-98 0 -158 59.5t-60 174.5t70.5 183.5t174.5 68.5q117 0 197.5 -94t80.5 -283 q0 -191 -85.5 -293t-208.5 -102q-130 0 -219 89z" />
<glyph unicode=":" horiz-adv-x="351" d="M176 352q-46 0 -76 31.5t-30 78.5t30 78.5t76 31.5t76 -31.5t30 -78.5t-30 -78.5t-76 -31.5zM176 -14q-46 0 -76 32t-30 79q0 46 30 78t76 32q45 0 75.5 -32t30.5 -78q0 -47 -30.5 -79t-75.5 -32z" />
<glyph unicode=";" horiz-adv-x="351" d="M176 352q-46 0 -76 31.5t-30 78.5t30 78.5t76 31.5t76 -31.5t30 -78.5t-30 -78.5t-76 -31.5zM185 7h-9q-44 0 -75 27t-31 73q0 44 32 72t79 28q58 0 89.5 -43.5t31.5 -122.5q0 -97 -55 -167t-158 -101l-36 95q63 22 97.5 59t34.5 80z" />
<glyph unicode="&#x3c;" horiz-adv-x="609" d="M570 115l-531 204v121l531 204v-146l-195 -62l-156 -54v-5l156 -53l195 -63v-146z" />
<glyph unicode="=" horiz-adv-x="609" d="M39 449v125h531v-125h-531zM39 180v125h531v-125h-531z" />
<glyph unicode="&#x3e;" horiz-adv-x="609" d="M39 115v146l195 63l156 53v5l-156 54l-195 62v146l531 -204v-121z" />
<glyph unicode="?" horiz-adv-x="536" d="M176 270q-7 43 5.5 82t34.5 67.5t45 53.5t40 50t17 47q0 32 -20 49.5t-52 17.5q-49 0 -101 -52l-98 90q92 105 221 105q99 0 160 -49.5t61 -148.5q0 -38 -17.5 -72.5t-42 -60.5t-48.5 -51.5t-39 -58.5t-11 -69h-155zM253 -14q-46 0 -76 32t-30 79q0 46 30 78t76 32 q45 0 75.5 -32t30.5 -78q0 -47 -30.5 -79t-75.5 -32z" />
<glyph unicode="@" horiz-adv-x="1041" d="M494 -199q-88 0 -166 27t-139.5 78.5t-97.5 136.5t-36 192q0 156 71.5 279.5t190 189t260.5 65.5q185 0 296.5 -114t111.5 -297q0 -76 -24 -138t-62.5 -99.5t-84.5 -58t-93 -20.5q-51 0 -87.5 23t-45.5 64h-3q-23 -34 -62.5 -55t-75.5 -21q-68 0 -110 47.5t-42 126.5 q0 109 68.5 195.5t164.5 86.5q59 0 86 -57h2l18 48h108l-53 -255q-23 -94 50 -94q54 0 94.5 57t40.5 145q0 133 -76.5 221t-235.5 88q-73 0 -143 -30.5t-124.5 -84t-87.5 -134.5t-33 -174q0 -160 96 -245.5t238 -85.5q90 0 172 43l38 -96q-99 -54 -224 -54zM486 163 q34 0 71 50l28 151q-18 32 -51 32q-45 0 -75.5 -52t-30.5 -107q0 -36 15.5 -55t42.5 -19z" />
<glyph unicode="A" horiz-adv-x="660" d="M251 309h152l-16 63q-10 39 -30 121t-29 118h-4q-39 -168 -57 -239zM480 0l-43 171h-220l-43 -171h-182l231 744h214l231 -744h-188z" />
<glyph unicode="B" horiz-adv-x="695" d="M86 0v744h260q277 0 277 -184q0 -51 -26.5 -97.5t-70.5 -63.5v-4q60 -16 96 -60t36 -115q0 -109 -81 -164.5t-210 -55.5h-281zM265 449h74q110 0 110 84q0 39 -26.5 57t-83.5 18h-74v-159zM265 137h89q130 0 130 95q0 45 -32 65t-98 20h-89v-180z" />
<glyph unicode="C" horiz-adv-x="667" d="M401 -14q-149 0 -249 100.5t-100 281.5q0 179 103.5 284.5t251.5 105.5q131 0 226 -97l-94 -114q-63 58 -129 58q-75 0 -125 -62.5t-50 -168.5q0 -110 46.5 -172t126.5 -62q79 0 142 68l94 -112q-95 -110 -243 -110z" />
<glyph unicode="D" horiz-adv-x="729" d="M86 0v744h214q178 0 277.5 -90t99.5 -278t-98.5 -282t-268.5 -94h-224zM265 144h24q97 0 151 53.5t54 178.5t-53.5 175.5t-151.5 50.5h-24v-458z" />
<glyph unicode="E" horiz-adv-x="630" d="M86 0v744h472v-148h-293v-138h249v-150h-249v-158h304v-150h-483z" />
<glyph unicode="F" horiz-adv-x="604" d="M86 0v744h475v-148h-296v-163h254v-149h-254v-284h-179z" />
<glyph unicode="G" horiz-adv-x="733" d="M421 -14q-162 0 -265.5 100t-103.5 282q0 180 105.5 285t260.5 105q141 0 238 -97l-95 -114q-63 58 -137 58q-84 0 -136.5 -62t-52.5 -169q0 -113 51 -173.5t153 -60.5q46 0 71 19v120h-118v146h277v-348q-41 -40 -107 -65.5t-141 -25.5z" />
<glyph unicode="H" horiz-adv-x="774" d="M86 0v744h179v-283h245v283h177v-744h-177v306h-245v-306h-179z" />
<glyph unicode="I" horiz-adv-x="350" d="M86 0v744h179v-744h-179z" />
<glyph unicode="J" horiz-adv-x="586" d="M261 -14q-166 0 -246 137l122 91q38 -74 100 -74q46 0 67.5 28t21.5 98v478h179v-492q0 -116 -62 -191t-182 -75z" />
<glyph unicode="K" horiz-adv-x="708" d="M86 0v744h179v-294h3l211 294h196l-225 -298l267 -446h-196l-175 305l-81 -110v-195h-179z" />
<glyph unicode="L" horiz-adv-x="597" d="M86 0v744h179v-594h289v-150h-468z" />
<glyph unicode="M" horiz-adv-x="877" d="M86 0v744h193l118 -321q9 -25 24 -77t17 -59h5q8 23 21 69t20 67l114 321h194v-744h-163v255q0 71 23 258h-4l-62 -178l-100 -272h-98l-101 272l-60 178h-4q23 -187 23 -258v-255h-160z" />
<glyph unicode="N" horiz-adv-x="764" d="M86 0v744h182l185 -356l73 -165h5q-24 190 -24 275v246h170v-744h-182l-184 359l-73 163h-5l9 -81t10.5 -108.5t3.5 -85.5v-247h-170z" />
<glyph unicode="O" horiz-adv-x="786" d="M393 -14q-154 0 -247.5 104.5t-93.5 285.5q0 180 93 281t248 101t248 -101.5t93 -280.5q0 -181 -93.5 -285.5t-247.5 -104.5zM393 140q73 0 116 63.5t43 172.5q0 107 -42.5 168t-116.5 61t-116 -60.5t-42 -168.5q0 -109 42.5 -172.5t115.5 -63.5z" />
<glyph unicode="P" horiz-adv-x="687" d="M86 0v744h261q65 0 116.5 -12.5t94 -39.5t65.5 -75t23 -115q0 -126 -83.5 -190.5t-210.5 -64.5h-87v-247h-179zM265 388h78q129 0 129 114q0 54 -33.5 77.5t-100.5 23.5h-73v-215z" />
<glyph unicode="Q" horiz-adv-x="786" d="M235 376q0 -116 42 -180t116 -64t116.5 64.5t42.5 179.5q0 107 -42.5 168t-116.5 61t-116 -60.5t-42 -168.5zM745 -55l31 -130q-47 -25 -135 -25q-117 0 -202 55.5t-127 148.5q-120 27 -190 127t-70 255q0 180 93 281t248 101t248 -101.5t93 -280.5q0 -146 -62.5 -244 t-171.5 -131q47 -70 161 -70q44 0 84 14z" />
<glyph unicode="R" horiz-adv-x="708" d="M265 603v-200h80q130 0 130 107q0 51 -32 72t-98 21h-80zM688 0h-200l-137 262h-86v-262h-179v744h273q291 0 291 -234q0 -155 -128 -215z" />
<glyph unicode="S" horiz-adv-x="639" d="M317 -14q-75 0 -148.5 27.5t-129.5 79.5l101 123q90 -76 181 -76q97 0 97 65q0 27 -21 42.5t-71 36.5q-9 3 -13 5l-95 40q-66 26 -108.5 77.5t-42.5 126.5q0 95 76.5 160t193.5 65q66 0 130 -25t112 -73l-89 -112q-75 57 -153 57q-42 0 -65.5 -16t-23.5 -46q0 -26 24 -42 t78 -37q7 -3 11 -4l93 -37q147 -59 147 -204q0 -97 -77 -165t-207 -68z" />
<glyph unicode="T" horiz-adv-x="640" d="M230 0v596h-201v148h582v-148h-202v-596h-179z" />
<glyph unicode="U" horiz-adv-x="763" d="M384 -14q-151 0 -226.5 89t-75.5 275v394h178v-413q0 -103 30.5 -147t93.5 -44t94.5 44.5t31.5 146.5v413h172v-394q0 -187 -74 -275.5t-224 -88.5z" />
<glyph unicode="V" horiz-adv-x="643" d="M214 0l-223 744h189l85 -339q11 -41 29 -119.5t29 -118.5h5q10 39 28.5 118t29.5 120l84 339h182l-224 -744h-214z" />
<glyph unicode="W" horiz-adv-x="935" d="M150 0l-136 744h183l47 -339l30 -236h4q20 112 44 236l76 339h150l78 -339q8 -42 22.5 -123.5t20.5 -112.5h5q5 46 15 128t13 108l48 339h170l-129 -744h-225l-67 324q-18 86 -29 173h-5q-22 -136 -29 -173l-65 -324h-221z" />
<glyph unicode="X" horiz-adv-x="657" d="M12 0l205 383l-193 361h199l60 -133q15 -32 54 -122h4q20 58 48 122l54 133h189l-192 -369l205 -375h-199l-69 145q-19 41 -55 124h-4q-27 -68 -51 -124l-64 -145h-191z" />
<glyph unicode="Y" horiz-adv-x="608" d="M215 0v263l-224 481h190l62 -165q8 -21 60 -166h4q7 19 62 166l62 165h187l-225 -481v-263h-178z" />
<glyph unicode="Z" horiz-adv-x="619" d="M39 0v108l321 488h-290v148h510v-107l-321 -487h324v-150h-544z" />
<glyph unicode="[" horiz-adv-x="400" d="M99 -174v984h246v-94h-114v-796h114v-94h-246z" />
<glyph unicode="\" horiz-adv-x="385" d="M255 -183l-220 995h115l220 -995h-115z" />
<glyph unicode="]" horiz-adv-x="400" d="M55 -174v94h114v796h-114v94h246v-984h-246z" />
<glyph unicode="^" horiz-adv-x="609" d="M56 311l177 455h143l177 -455h-146l-49 140l-51 155h-5l-51 -155l-49 -140h-146z" />
<glyph unicode="_" horiz-adv-x="572" d="M14 -163v99h544v-99h-544z" />
<glyph unicode="`" horiz-adv-x="637" d="M303 655l-211 179l121 119l177 -212z" />
<glyph unicode="a" horiz-adv-x="606" d="M216 -14q-77 0 -123 49.5t-46 123.5q0 91 75 141t241 68q-6 73 -86 73q-60 0 -149 -50l-62 117q125 75 245 75q230 0 230 -260v-323h-145l-13 57h-4q-79 -71 -163 -71zM277 124q44 0 86 45v91q-147 -20 -147 -87q0 -49 61 -49z" />
<glyph unicode="b" horiz-adv-x="658" d="M376 -14q-80 0 -147 75h-4l-14 -61h-139v799h177v-192l-4 -85q67 61 147 61q102 0 162.5 -78.5t60.5 -209.5q0 -141 -71 -225t-168 -84zM334 132q44 0 71 39t27 120q0 147 -92 147q-46 0 -91 -48v-225q37 -33 85 -33z" />
<glyph unicode="c" horiz-adv-x="537" d="M323 -14q-123 0 -203 80t-80 218q0 137 87 218t212 81q95 0 166 -61l-83 -114q-37 31 -73 31q-58 0 -92.5 -42t-34.5 -113q0 -70 34 -112t87 -42q49 0 99 40l68 -117q-75 -67 -187 -67z" />
<glyph unicode="d" horiz-adv-x="658" d="M276 -14q-107 0 -170 80t-63 218q0 134 70.5 216.5t164.5 82.5q76 0 137 -59l-7 85v190h179v-799h-145l-13 55h-4q-69 -69 -149 -69zM323 132q54 0 85 48v224q-37 34 -88 34q-40 0 -67 -38.5t-27 -112.5q0 -155 97 -155z" />
<glyph unicode="e" horiz-adv-x="596" d="M329 -14q-126 0 -207.5 80t-81.5 218q0 133 80.5 216t189.5 83q119 0 181.5 -76.5t62.5 -198.5q0 -50 -8 -76h-334q23 -110 142 -110q58 0 120 36l59 -107q-91 -65 -204 -65zM209 348h194q0 99 -90 99q-39 0 -67 -25t-37 -74z" />
<glyph unicode="f" horiz-adv-x="398" d="M433 793l-32 -131q-31 12 -58 12q-63 0 -63 -78v-27h101v-139h-101v-430h-178v430h-76v132l76 6v23q0 99 52 160.5t163 61.5q64 0 116 -20z" />
<glyph unicode="g" horiz-adv-x="616" d="M276 -239q-106 0 -172.5 35.5t-66.5 107.5q0 71 81 112v5q-52 35 -52 98q0 62 63 106v4q-33 23 -55 61.5t-22 85.5q0 99 69.5 153t168.5 54q50 0 90 -14h209v-129h-88q16 -28 16 -69q0 -95 -63 -143t-164 -48q-31 0 -67 10q-18 -17 -18 -40q0 -38 84 -38h90 q219 0 219 -146q0 -91 -87.5 -148t-234.5 -57zM290 287q33 0 52.5 23t19.5 66q0 42 -19.5 65t-52.5 23q-32 0 -52 -23t-20 -65q0 -43 20 -66t52 -23zM304 -128q54 0 89 18t35 45q0 24 -20 32.5t-63 8.5h-54q-56 0 -81 7q-27 -24 -27 -51q0 -29 32.5 -44.5t88.5 -15.5z" />
<glyph unicode="h" horiz-adv-x="658" d="M72 0v799h177v-192l-8 -101q83 77 174 77q177 0 177 -231v-352h-178v330q0 57 -15.5 79t-50.5 22q-28 0 -49 -11.5t-50 -39.5v-380h-177z" />
<glyph unicode="i" horiz-adv-x="321" d="M72 0v569h177v-569h-177zM161 648q-45 0 -73.5 25.5t-28.5 65.5q0 41 28.5 66.5t73.5 25.5q44 0 72.5 -26t28.5 -66t-28.5 -65.5t-72.5 -25.5z" />
<glyph unicode="j" horiz-adv-x="322" d="M42 -221q-59 0 -102 16l31 131q24 -8 43 -8q32 0 45.5 21t13.5 68v562h179v-556q0 -105 -49 -169.5t-161 -64.5zM163 648q-45 0 -74 25.5t-29 65.5t29 66t74 26q44 0 72.5 -26t28.5 -66t-28.5 -65.5t-72.5 -25.5z" />
<glyph unicode="k" horiz-adv-x="634" d="M72 0v799h173v-446h4l173 216h193l-201 -235l215 -334h-193l-123 216l-68 -77v-139h-173z" />
<glyph unicode="l" horiz-adv-x="332" d="M234 -14q-87 0 -124.5 52t-37.5 147v614h177v-621q0 -25 9.5 -36.5t22.5 -11.5q10 0 20 2l21 -131q-36 -15 -88 -15z" />
<glyph unicode="m" horiz-adv-x="985" d="M72 0v569h145l12 -72h4q42 42 81 64t92 22q111 0 156 -94q44 45 85 69.5t93 24.5q90 0 134 -60.5t44 -170.5v-352h-178v330q0 57 -15 79t-50 22q-41 0 -91 -51v-380h-179v330q0 57 -15 79t-50 22q-41 0 -91 -51v-380h-177z" />
<glyph unicode="n" horiz-adv-x="658" d="M72 0v569h145l12 -71h4q87 85 182 85q177 0 177 -231v-352h-178v330q0 57 -15.5 79t-50.5 22q-28 0 -49 -11.5t-50 -39.5v-380h-177z" />
<glyph unicode="o" horiz-adv-x="637" d="M319 -14q-114 0 -196.5 81.5t-82.5 216.5q0 136 82.5 217.5t196.5 81.5t196 -81.5t82 -217.5q0 -135 -82 -216.5t-196 -81.5zM319 130q96 0 96 154q0 155 -96 155q-97 0 -97 -155q0 -154 97 -154z" />
<glyph unicode="p" horiz-adv-x="658" d="M72 -207v776h145l12 -55h4q78 69 160 69q102 0 162 -78.5t60 -210.5q0 -140 -71 -224t-168 -84q-73 0 -132 59l5 -89v-163h-177zM334 132q44 0 71 39t27 120q0 147 -92 147q-46 0 -91 -48v-225q37 -33 85 -33z" />
<glyph unicode="q" horiz-adv-x="658" d="M408 -207v169l7 85q-61 -61 -139 -61q-107 0 -170 80t-63 218q0 134 70.5 216.5t164.5 82.5q89 0 150 -71h5l15 57h139v-776h-179zM323 132q54 0 85 48v224q-37 34 -88 34q-40 0 -67 -38.5t-27 -112.5q0 -155 97 -155z" />
<glyph unicode="r" horiz-adv-x="464" d="M72 0v569h145l12 -99h4q30 55 73.5 84t88.5 29q42 0 69 -12l-30 -153q-36 9 -62 9q-35 0 -68.5 -25t-54.5 -77v-325h-177z" />
<glyph unicode="s" horiz-adv-x="510" d="M242 -14q-56 0 -116 22t-103 58l79 111q78 -60 144 -60q67 0 67 45q0 7 -3 13.5t-10 12t-13 10t-18.5 10t-20 8.5t-24.5 9.5t-24 9.5q-148 59 -148 167q0 81 60.5 131t159.5 50q105 0 204 -73l-80 -106q-69 48 -118 48q-60 0 -60 -41q0 -6 1.5 -11t5.5 -9t8.5 -8 t11.5 -7.5l13 -6.5t16 -6.5t17 -6t19 -6.5t19 -7q68 -26 109 -64t41 -107q0 -82 -62 -134t-175 -52z" />
<glyph unicode="t" horiz-adv-x="445" d="M296 -14q-103 0 -152 59.5t-49 165.5v219h-77v132l87 7l20 150h148v-150h134v-139h-134v-217q0 -88 72 -88q17 0 52 10l28 -128q-70 -21 -129 -21z" />
<glyph unicode="u" horiz-adv-x="654" d="M243 -14q-177 0 -177 231v352h178v-330q0 -57 15.5 -79t50.5 -22q30 0 51 13t44 45v373h178v-569h-145l-13 78h-4q-77 -92 -178 -92z" />
<glyph unicode="v" horiz-adv-x="607" d="M203 0l-189 569h179l69 -262q7 -28 21 -86.5t22 -88.5h5q11 52 42 175l70 262h171l-184 -569h-206z" />
<glyph unicode="w" horiz-adv-x="897" d="M168 0l-140 569h176l51 -255q5 -29 12.5 -85.5t11.5 -84.5h5q23 130 33 170l58 255h154l61 -255q8 -32 20 -93t15 -77h5q3 18 11 78t14 92l49 255h165l-134 -569h-208l-48 217q-14 66 -30 167h-5q-15 -104 -27 -167l-46 -217h-203z" />
<glyph unicode="x" horiz-adv-x="598" d="M16 0l174 296l-164 273h191l47 -88q23 -48 47 -97h5q6 19 20 53.5t17 43.5l35 88h184l-164 -293l174 -276h-191l-52 89q-39 75 -52 98h-5q-19 -41 -42 -98l-39 -89h-185z" />
<glyph unicode="y" horiz-adv-x="604" d="M143 -219q-46 0 -84 11l32 135q35 -7 38 -7q73 0 95 68l8 29l-218 552h179l76 -236q5 -15 44 -161h5q10 47 37 161l66 236h169l-195 -570q-44 -116 -99.5 -167t-152.5 -51z" />
<glyph unicode="z" horiz-adv-x="532" d="M44 0v95l231 335h-205v139h427v-95l-231 -335h238v-139h-460z" />
<glyph unicode="{" horiz-adv-x="400" d="M270 -174q-78 0 -113 36.5t-35 127.5q0 42 5.5 99.5t5.5 92.5q0 34 -23.5 58.5t-74.5 25.5v104q51 1 74.5 25.5t23.5 58.5q0 35 -5.5 92.5t-5.5 98.5q0 92 34.5 128.5t113.5 36.5h75v-94h-20q-35 0 -47 -15.5t-12 -61.5q0 -29 2 -88.5t2 -95.5q0 -64 -20.5 -94t-66.5 -41 v-5q46 -10 66.5 -40t20.5 -95q0 -34 -2 -93.5t-2 -89.5q0 -46 12 -61.5t47 -15.5h20v-94h-75z" />
<glyph unicode="|" horiz-adv-x="311" d="M98 -286v1144h115v-1144h-115z" />
<glyph unicode="}" horiz-adv-x="400" d="M55 -174v94h20q35 0 47 15.5t12 61.5q0 30 -2 89.5t-2 93.5q0 65 20.5 95t66.5 40v5q-46 11 -66.5 41t-20.5 94q0 36 2 95.5t2 88.5q0 46 -12 61.5t-47 15.5h-20v94h75q79 0 113.5 -36.5t34.5 -128.5q0 -41 -5.5 -98.5t-5.5 -92.5q0 -34 23 -58.5t74 -25.5v-104 q-51 -1 -74 -25.5t-23 -58.5q0 -35 5.5 -92.5t5.5 -99.5q0 -91 -35 -127.5t-113 -36.5h-75z" />
<glyph unicode="~" horiz-adv-x="609" d="M401 272q-40 0 -76 21.5t-65 43t-54 21.5q-45 0 -82 -66l-92 71q79 120 176 120q40 0 75.5 -21.5t65 -42.5t54.5 -21q45 0 82 64l92 -70q-79 -120 -176 -120z" />
<glyph unicode="&#xac00;" d="M74 750h450q0 -113 -21 -208.5t-68 -184.5t-129 -164t-198 -134l-90 122q157 82 240 187t102 253h-286v129zM899 498v-132h-121v-459h-162v938h162v-347h121z" />
<glyph unicode="&#xac01;" d="M67 795h448q0 -192 -110.5 -318.5t-321.5 -180.5l-66 125q144 34 225 98.5t99 148.5h-274v127zM145 139v126h635v-360h-162v234h-473zM897 635v-131h-117v-202h-162v542h162v-209h117z" />
<glyph unicode="&#xac04;" d="M66 775h459q0 -196 -110 -326t-325 -188l-66 126q146 38 227 105.5t98 155.5h-283v127zM323 246v-200h483v-127h-645v327h162zM779 594h118v-131h-118v-284h-162v665h162v-250z" />
<glyph unicode="&#xac07;" d="M67 794h448q0 -193 -110 -319.5t-322 -181.5l-63 127q143 35 223.5 99.5t97.5 147.5h-274v127zM322 160v-119h484v-126h-645v371h628v-126h-467zM780 649h117v-131h-117v-194h-162v520h162v-195z" />
<glyph unicode="&#xac08;" d="M75 815h450q0 -379 -442 -461l-57 131q150 24 227.5 78.5t89.5 124.5h-268v127zM308 73v-33h496v-125h-656v276h472v31h-473v125h633v-274h-472zM780 671h117v-131h-117v-160h-162v464h162v-173z" />
<glyph unicode="&#xac09;" d="M76 811h450q0 -195 -109.5 -310.5t-332.5 -159.5l-57 131q290 51 317 212h-268v127zM271 63v-32q157 1 220 17l14 -116q-46 -13 -105 -16t-219 -3h-66v259h162v30h-163v117h319v-256h-162zM470 194v125h310v-408h-159v283h-151zM897 665v-131h-117v-176h-162v486h162 v-179h117z" />
<glyph unicode="&#xac0a;" d="M75 811h451q0 -194 -110.5 -307t-333.5 -153l-56 131q153 24 229.5 77.5t87.5 124.5h-268v127zM256 68v-28q101 1 169 14l12 -121q-85 -15 -278 -15h-59v260h158v26h-159v118h315v-254h-158zM594 206v-172h49v172h-49zM457 -82v404h323v-404h-323zM897 667v-131h-117 v-174h-162v482h162v-177h117z" />
<glyph unicode="&#xac10;" d="M67 794h449q0 -192 -110.5 -318t-322.5 -180l-63 127q143 34 223 97.5t98 146.5h-274v127zM320 166v-126h301v126h-301zM161 -85v376h619v-376h-619zM897 653v-131h-117v-198h-162v520h162v-191h117z" />
<glyph unicode="&#xac11;" d="M79 798h441q0 -381 -436 -474l-58 129q283 56 314 218h-261v127zM619 42v63h-302v-63h302zM619 227v74h160v-386h-622v386h160v-74h302zM897 653v-131h-118v-187h-162v509h162v-191h118z" />
<glyph unicode="&#xac12;" d="M73 799h446q0 -194 -108 -311.5t-326 -164.5l-59 129q283 57 314 220h-267v127zM323 39v58h-54v-58h54zM740 300v-65q0 -152 142 -206l-82 -120q-93 35 -139 121q-46 -84 -136 -121l-56 82v-73h-348v371h148v-74h54v74h146v-247q116 61 116 193v65h155zM780 660h117v-131 h-117v-194h-162v509h162v-184z" />
<glyph unicode="&#xac13;" d="M76 776h450q0 -197 -112 -328.5t-327 -189.5l-65 128q145 38 226.5 106t99.5 157h-272v127zM554 288v-19q0 -37 14.5 -71.5t45 -67.5t88 -58.5t135.5 -36.5l-63 -126q-211 31 -300 165q-91 -134 -301 -165l-62 126q77 11 134.5 36.5t88 58.5t45 67.5t14.5 71.5v19h161z M780 615h117v-131h-117v-256h-162v617h162v-230z" />
<glyph unicode="&#xac14;" d="M84 293l-62 128q142 35 222 99.5t97 147.5h-268v127h445q0 -193 -111 -320.5t-323 -181.5zM718 288v-31q0 -177 165 -229l-79 -116q-122 43 -169 150q-53 -114 -168 -159q-115 43 -168 156q-51 -106 -165 -147l-80 116q165 58 165 229v31h157v-31q0 -127 90 -199 q92 76 92 199v31h160zM780 649h117v-131h-117v-193h-162v519h162v-195z" />
<glyph unicode="&#xac15;" d="M70 786h449q0 -193 -110 -322.5t-320 -186.5l-65 129q141 37 221 102.5t97 150.5h-272v127zM470 27q160 0 160 73q0 74 -160 74q-161 0 -161 -74q0 -73 161 -73zM470 298q144 0 232 -54t88 -144q0 -89 -88.5 -143t-231.5 -54q-144 0 -232.5 53.5t-88.5 143.5t88.5 144 t232.5 54zM780 637h117v-131h-117v-195h-162v533h162v-207z" />
<glyph unicode="&#xac16;" d="M73 795h447q0 -384 -435 -481l-59 128q146 30 223.5 89t92.5 137h-269v127zM790 173h-227q16 -51 81 -91t188 -54l-57 -122q-215 24 -303 144q-87 -116 -304 -142l-57 122q236 25 269 143h-227v125h637v-125zM780 644h117v-131h-117v-179h-162v510h162v-200z" />
<glyph unicode="&#xac17;" d="M75 794h448q0 -377 -441 -459l-56 129q148 24 225.5 78.5t91.5 124.5h-268v127zM790 161h-235q13 -49 78 -85.5t197 -46.5l-55 -120q-218 20 -306 126q-88 -106 -304 -126l-56 120q244 19 274 132h-239v123h244v84h162v-84h240v-123zM780 657h117v-131h-117v-191h-162 v509h162v-187z" />
<glyph unicode="&#xac19;" d="M76 782h450q0 -191 -107 -297.5t-328 -142.5l-62 127q155 20 230 70t85 116h-268v127zM313 64v-34h490v-116h-651v410h632v-116h-471v-33h461v-111h-461zM780 665h117v-131h-117v-176h-162v486h162v-179z" />
<glyph unicode="&#xac1a;" d="M80 793h444q0 -190 -111.5 -308t-327.5 -162l-60 129q146 26 225 83.5t93 130.5h-263v127zM420 183v-143h112v143h-112zM691 183v-143h114v-125h-655v125h111v143h-103v125h637v-125h-104zM780 659h117v-131h-117v-185h-162v501h162v-185z" />
<glyph unicode="&#xac1b;" d="M67 805h451q0 -198 -104 -308t-332 -153l-56 128q289 46 314 206h-273v127zM463 15q64 0 90.5 5.5t26.5 20.5t-27 21t-90 6t-90.5 -6t-27.5 -21t27 -20.5t91 -5.5zM463 179q125 0 197 -36.5t72 -101.5t-72 -101.5t-197 -36.5q-126 0 -198 36.5t-72 101.5t72 101.5 t198 36.5zM544 398v-79h252v-120h-665v120h251v79h162zM780 667h117v-131h-117v-174h-162v482h162v-177z" />
<glyph unicode="&#xac1c;" d="M70 731h374q0 -220 -74 -374t-259 -264l-94 111q129 79 191 173t76 227h-214v127zM690 844h153v-937h-153v468h-58v-432h-150v876h150v-316h58v341z" />
<glyph unicode="&#xac1d;" d="M66 780h375q0 -184 -83 -302t-267 -186l-74 117q121 42 181.5 101.5t75.5 143.5h-208v126zM178 134v127h662v-356h-162v229h-500zM687 844h153v-547h-153v212h-55v-211h-150v528h150v-189h55v207z" />
<glyph unicode="&#xac20;" d="M632 459v-291h-150v659h150v-240h55v257h153v-701h-153v316h-55zM69 755h369q0 -187 -80 -308t-261 -195l-78 117q119 46 178 108.5t74 150.5h-202v127zM352 46h512v-127h-674v304h162v-177z" />
<glyph unicode="&#xac24;" d="M632 540v-154h-150v441h150v-160h55v177h153v-464h-153v160h-55zM72 790h364q0 -174 -80.5 -281.5t-257.5 -167.5l-75 117q114 33 171 84t72 122h-194v126zM353 39h513v-124h-673v275h487v33h-488v123h648v-272h-487v-35z" />
<glyph unicode="&#xac2c;" d="M70 780h372q0 -188 -78 -305.5t-261 -189.5l-78 115q121 45 179 106t70 148h-204v126zM352 147v-103h330v103h-330zM193 -81v353h647v-353h-647zM687 844h153v-533h-153v201h-55v-195h-150v509h150v-186h55v204z" />
<glyph unicode="&#xac2d;" d="M72 790h367q0 -183 -80 -300t-257 -188l-78 116q115 44 173 103t73 142h-198v127zM680 43v67h-327v-67h327zM680 232v72h160v-385h-647v385h160v-72h327zM687 844h153v-504h-153v180h-55v-175h-150v481h150v-178h55v196z" />
<glyph unicode="&#xac2f;" d="M632 499v-177h-150v505h150v-200h55v217h153v-612h-153v267h-55zM71 769h373q0 -188 -80 -312.5t-259 -200.5l-82 115q119 49 179.5 114.5t74.5 156.5h-206v127zM595 281v-21q0 -35 14.5 -68.5t45.5 -66.5t90 -57t138 -34l-61 -125q-217 30 -308 162q-93 -132 -309 -162 l-61 125q79 10 138 34.5t90.5 56.5t46 66t14.5 69v21h162z" />
<glyph unicode="&#xac30;" d="M632 506v-180h-150v500h150v-192h55v210h153v-519h-153v181h-55zM98 291l-78 118q118 43 177 102t74 142h-202v127h371q0 -184 -81 -302t-261 -187zM735 287v-30q0 -175 167 -225l-79 -117q-120 39 -172 149q-51 -113 -166 -158q-117 43 -169 155q-52 -106 -168 -146 l-79 117q167 56 167 225v30h157v-30q0 -124 90 -195q93 73 93 195v30h159z" />
<glyph unicode="&#xac31;" d="M632 507v-190h-150v509h150v-191h55v209h153v-556h-153v219h-55zM74 780h369q0 -189 -82 -312t-266 -197l-78 118q121 46 181.5 110.5t74.5 153.5h-199v127zM517 30q166 0 166 66q0 67 -166 67q-167 0 -167 -67q0 -66 167 -66zM517 285q149 0 238.5 -51t89.5 -138 q0 -86 -90 -137t-238 -51q-149 0 -239 51t-90 137q0 87 90 138t239 51z" />
<glyph unicode="&#xac38;" d="M74 750h450q0 -113 -21 -208.5t-68 -184.5t-129 -164t-198 -134l-90 122q157 81 240 186.5t102 253.5h-286v129zM898 491h-120v-148h120v-131h-120v-305h-162v938h162v-223h120v-131z" />
<glyph unicode="&#xac39;" d="M67 795h448q0 -192 -110.5 -318t-321.5 -180l-66 125q144 33 225 97.5t99 148.5h-274v127zM145 139v126h635v-360h-162v234h-473zM897 604h-117v-74h117v-127h-117v-101h-162v542h162v-113h117v-127z" />
<glyph unicode="&#xac3c;" d="M66 775h459q0 -196 -110 -325.5t-325 -188.5l-66 127q146 38 227 105t98 155h-283v127zM323 247v-201h483v-127h-645v328h162zM897 567h-118v-95h118v-130h-118v-162h-162v663h162v-146h118v-130z" />
<glyph unicode="&#xac40;" d="M75 815h450q0 -379 -442 -461l-57 130q150 24 227.5 78.5t89.5 125.5h-268v127zM308 73v-33h496v-125h-656v276h472v31h-473v125h633v-274h-472zM896 637h-116v-56h116v-126h-116v-75h-162v464h162v-81h116v-126z" />
<glyph unicode="&#xac4b;" d="M76 776h450q0 -196 -112 -327.5t-327 -190.5l-65 128q144 37 226 105.5t100 157.5h-272v127zM554 288v-19q0 -37 14.5 -71.5t45 -67.5t88 -58.5t135.5 -36.5l-63 -126q-211 31 -300 165q-91 -134 -301 -165l-62 126q77 11 134.5 36.5t88 58.5t45 67.5t14.5 71.5v19h161z M895 583h-115v-88h115v-130h-115v-137h-162v616h162v-131h115v-130z" />
<glyph unicode="&#xac4d;" d="M70 786h449q0 -193 -110 -322.5t-320 -186.5l-65 129q141 37 221 102.5t97 150.5h-272v127zM470 27q160 0 160 73q0 74 -160 74q-161 0 -161 -74q0 -73 161 -73zM470 298q144 0 232 -54t88 -144q0 -89 -88.5 -143t-231.5 -54q-144 0 -232.5 53.5t-88.5 143.5t88.5 144 t232.5 54zM893 599h-113v-65h114v-130h-114v-93h-162v533h162v-115h113v-130z" />
<glyph unicode="&#xac54;" d="M70 731h374q0 -220 -74 -374t-259 -264l-94 112q129 78 191 172t76 227h-214v127zM632 365h58v135h-58v-135zM690 845h153v-938h-153v331h-58v-295h-150v877h150v-193h58v218z" />
<glyph unicode="&#xac58;" d="M687 558h-55v-92h55v92zM632 339v-171h-150v658h150v-141h55v159h153v-701h-153v196h-55zM69 755h369q0 -187 -80 -308t-261 -195l-78 117q119 46 178 108.5t74 150.5h-202v127zM352 46h512v-127h-674v304h162v-177z" />
<glyph unicode="&#xac5c;" d="M687 628h-55v-52h55v52zM632 455v-69h-150v441h150v-78h55v96h153v-465h-153v75h-55zM72 790h364q0 -174 -80.5 -281.5t-257.5 -167.5l-75 117q113 34 170.5 84t72.5 121h-194v127zM353 39h513v-124h-673v275h487v33h-488v123h648v-272h-487v-35z" />
<glyph unicode="&#xac70;" d="M65 749h449q0 -117 -18 -210t-62.5 -182t-127 -163.5t-203.5 -135.5l-84 125q165 83 240.5 186t90.5 253h-285v127zM666 843h162v-938h-162v458h-160v129h160v351z" />
<glyph unicode="&#xac71;" d="M92 794h431q0 -190 -107 -316.5t-314 -182.5l-63 125q139 37 216.5 100.5t93.5 146.5h-257v127zM181 140v126h647v-356h-162v230h-485zM666 844h162v-542h-162v194h-132v129h132v219z" />
<glyph unicode="&#xac74;" d="M527 580h139v265h162v-683h-162v289h-139v129zM94 775h444q0 -194 -110 -330.5t-318 -200.5l-67 128q137 42 219 113t101 163h-269v127zM363 46h489v-127h-651v310h162v-183z" />
<glyph unicode="&#xac77;" d="M666 324v178h-139v129h139v213h162v-520h-162zM88 794h432q0 -192 -106.5 -319t-315.5 -185l-63 126q277 74 311 251h-258v127zM364 41h485v-126h-646v371h628v-126h-467v-119z" />
<glyph unicode="&#xac78;" d="M666 380v152h-142v127h142v185h162v-464h-162zM101 815h410q0 -188 -101.5 -300.5t-311.5 -160.5l-55 126q263 55 294 209h-236v126zM362 40h479v-125h-641v276h466v32h-467v125h629v-275h-466v-33z" />
<glyph unicode="&#xac7a;" d="M95 811h428q0 -189 -105 -302.5t-318 -158.5l-55 123q274 53 304 212h-254v126zM298 72v-36q104 1 174 14l13 -120q-85 -16 -283 -16h-60v268h166v32h-167v118h323v-260h-166zM642 216v-186h49v186h-49zM505 -86v418h323v-418h-323zM666 844h162v-477h-162v152h-136v127 h136v198z" />
<glyph unicode="&#xac80;" d="M88 794h432q0 -191 -107 -317.5t-315 -182.5l-63 126q277 73 311 247h-258v127zM361 162v-122h308v122h-308zM202 -85v372h626v-372h-626zM666 844h162v-520h-162v178h-139v129h139v213z" />
<glyph unicode="&#xac81;" d="M91 794h433q0 -194 -103 -313t-319 -173l-62 125q279 64 309 234h-258v127zM668 41v61h-312v-61h312zM668 224v73h160v-383h-632v383h160v-73h312zM666 844h162v-509h-162v176h-141v129h141v204z" />
<glyph unicode="&#xac83;" d="M666 228v247h-139v129h139v241h162v-617h-162zM95 775h425q0 -201 -97 -326.5t-312 -191.5l-66 124q146 43 217 108.5t85 158.5h-252v127zM585 291v-25q0 -36 14 -70t45 -67.5t88 -58.5t135 -36l-63 -125q-210 31 -299 163q-93 -133 -301 -164l-62 126q77 11 134.5 36 t88 58t45 67.5t14.5 70.5v25h161z" />
<glyph unicode="&#xac84;" d="M666 325v176h-139v129h139v214h162v-519h-162zM99 294l-63 126q275 72 311 247h-258v127h431q0 -191 -106.5 -317t-314.5 -183zM738 288v-30q0 -178 166 -229l-80 -116q-120 40 -170 150q-54 -114 -168 -160q-116 45 -168 157q-52 -107 -167 -147l-80 116q167 57 167 229 v30h157v-30q0 -128 90 -199q92 76 92 199v30h161z" />
<glyph unicode="&#xac85;" d="M666 321v165h-132v129h132v229h162v-523h-162zM93 783h430q0 -198 -102 -320.5t-320 -179.5l-63 126q280 69 310 247h-255v127zM514 35q160 0 160 74q0 75 -160 75q-161 0 -161 -75q0 -74 161 -74zM514 308q143 0 231.5 -54t88.5 -145q0 -90 -88.5 -144t-231.5 -54 q-144 0 -232.5 54t-88.5 144q0 91 88.5 145t232.5 54z" />
<glyph unicode="&#xac86;" d="M527 624h139v220h162v-515h-162v166h-139v129zM94 794h440q0 -384 -441 -480l-56 127q148 29 227 88.5t94 137.5h-264v127zM833 166h-235q13 -48 78.5 -87t191.5 -50l-56 -120q-213 21 -303 134q-87 -113 -304 -134l-55 120q129 11 193 49t76 88h-226v126h640v-126z" />
<glyph unicode="&#xac89;" d="M666 362v150h-139v129h139v203h162v-482h-162zM89 807h436q0 -193 -104.5 -310.5t-319.5 -167.5l-60 125q280 60 308 226h-260v127zM363 32h484v-117h-646v409h632v-116h-470v-32h451v-111h-451v-33z" />
<glyph unicode="&#xac8a;" d="M666 343v155h-140v129h140v217h162v-501h-162zM91 794h433q0 -188 -108 -311t-315 -177l-61 126q137 33 214.5 94t94.5 141h-258v127zM446 179v-135h122v135h-122zM727 44h120v-125h-679v125h119v135h-108v125h656v-125h-108v-135z" />
<glyph unicode="&#xac8b;" d="M666 353v177h-140v129h140v185h162v-491h-162zM92 802h414q0 -194 -98.5 -304.5t-316.5 -159.5l-55 125q146 29 215 83t82 131h-241v125zM502 12q99 0 99 25t-99 25t-99 -25t99 -25zM502 171q126 0 198 -35.5t72 -98.5t-72 -98t-198 -35t-198 35t-72 98t72 98.5t198 35.5 zM583 312h251v-120h-664v120h251v87h162v-87z" />
<glyph unicode="&#xac8c;" d="M497 497v328h150v-881h-150v426h-121q-77 -163 -269 -274l-90 112q133 80 195 174t75 228h-212v127h371q0 -136 -24 -240h75zM696 844h153v-938h-153v938z" />
<glyph unicode="&#xac90;" d="M840 844v-696h-153v696h153zM494 440h-140q-82 -114 -254 -184l-78 117q118 46 177 108.5t74 150.5h-190v127h358q0 -108 -25 -192h78v260h150v-654h-150v267zM370 46h506v-127h-668v316h162v-189z" />
<glyph unicode="&#xac94;" d="M840 844v-464h-153v464h153zM494 515h-126q-78 -112 -261 -175l-76 118q113 33 169.5 84t70.5 122h-186v126h357q0 -80 -17 -150h69v186h150v-445h-150v134zM355 39h511v-124h-673v275h485v33h-486v123h648v-272h-485v-35z" />
<glyph unicode="&#xac9c;" d="M494 482h-124q-79 -124 -259 -198l-80 117q115 45 172.5 106t71.5 146h-190v127h358q0 -95 -19 -171h70v217h150v-514h-150v170zM355 143v-100h326v100h-326zM196 -82v350h644v-350h-644zM687 844h153v-538h-153v538z" />
<glyph unicode="&#xac9d;" d="M494 495h-129q-76 -112 -260 -181l-78 116q118 39 174 93.5t69 132.5h-183v127h352q0 -87 -17 -161h72v204h150v-490h-150v159zM680 44v59h-327v-59h327zM680 225v73h160v-379h-647v379h160v-73h327zM687 844h153v-514h-153v514z" />
<glyph unicode="&#xac9f;" d="M840 844v-602h-153v602h153zM494 471h-122q-79 -135 -266 -217l-80 117q116 50 174.5 114.5t72.5 156.5h-195v127h362q0 -94 -19 -171h73v229h150v-505h-150v149zM585 281v-20q0 -78 68.5 -142.5t222.5 -84.5l-61 -125q-217 30 -309 162q-94 -132 -311 -162l-61 125 q154 20 222.5 84.5t68.5 142.5v20h160z" />
<glyph unicode="&#xaca0;" d="M840 844v-528h-153v528h153zM108 283l-79 118q117 44 175.5 105.5t72.5 147.5h-194v127h363q0 -96 -20 -169h68v214h150v-500h-150v159h-122q-80 -126 -264 -202zM735 288v-30q0 -176 167 -226l-79 -116q-120 39 -172 149q-54 -116 -167 -158q-115 42 -168 155 q-52 -106 -168 -146l-79 116q167 56 167 226v30h157v-30q0 -124 89 -195q93 73 93 195v30h160z" />
<glyph unicode="&#xaca1;" d="M840 844v-556h-153v556h153zM494 485h-120q-79 -134 -272 -214l-78 118q119 48 178.5 111.5t73.5 152.5h-198v127h367q0 -93 -19 -168h68v214h150v-509h-150v168zM520 28q167 0 167 67q0 68 -167 68q-166 0 -166 -68q0 -67 166 -67zM520 283q149 0 239 -51t90 -137 q0 -85 -90 -136t-239 -51q-148 0 -238 51t-90 136q0 86 89.5 137t238.5 51z" />
<glyph unicode="&#xaca8;" d="M666 843h162v-937h-162v320h-200v128h200v132h-185q-39 -136 -130 -242.5t-248 -185.5l-84 125q156 83 235 187t96 252h-284v127h448q0 -77 -8 -136h160v230z" />
<glyph unicode="&#xaca9;" d="M181 124v126h647v-341h-162v215h-485zM666 844h162v-557h-162v87h-186v128h186v73h-170q-93 -213 -393 -294l-60 127q143 36 223.5 101t96.5 150h-264v127h439q0 -44 -6 -84h134v142z" />
<glyph unicode="&#xacaa;" d="M146 147v127h326v-368h-162v241h-164zM510 147v127h318v-368h-162v241h-156zM666 844h162v-533h-162v76h-186v128h186v75h-169q-90 -215 -390 -293l-64 125q142 34 222 98t97 147h-264v127h439q0 -37 -5 -77h134v127z" />
<glyph unicode="&#xacac;" d="M666 544h-173q-98 -212 -382 -298l-66 127q138 42 220.5 113t101.5 162h-270v127h445q0 -59 -8 -104h132v173h162v-687h-162v175h-189v128h189v84zM363 46h489v-127h-651v304h162v-177z" />
<glyph unicode="&#xacaf;" d="M666 598h-176q-89 -222 -391 -302l-61 126q140 35 218.5 98.5t94.5 146.5h-263v127h437q0 -40 -4 -69h145v120h162v-520h-162v66h-189v128h189v79zM364 41h485v-126h-646v371h628v-126h-467v-119z" />
<glyph unicode="&#xacb0;" d="M666 616h-180q-83 -198 -389 -261l-54 128q272 51 299 204h-241v127h420q0 -37 -5 -77h150v108h162v-469h-162v56h-188v121h188v63zM362 40h479v-125h-641v276h466v31h-467v125h629v-274h-466v-33z" />
<glyph unicode="&#xacb8;" d="M361 160v-120h308v120h-308zM202 -85v370h626v-370h-626zM666 844h162v-523h-162v87h-187v128h187v70h-176q-84 -229 -392 -311l-62 125q140 37 218 100.5t94 146.5h-260v127h434q0 -31 -3 -61h147v111z" />
<glyph unicode="&#xacb9;" d="M668 41v61h-312v-61h312zM668 224v72h160v-382h-632v382h160v-72h312zM666 844h162v-509h-162v71h-182v128h182v68h-172q-82 -218 -391 -294l-62 124q278 62 310 235h-260v127h435q0 -33 -3 -65h143v115z" />
<glyph unicode="&#xacbb;" d="M666 574h-174q-76 -225 -381 -318l-65 126q146 41 217.5 107.5t85.5 158.5h-254v127h427q0 -38 -3 -74h147v143h162v-621h-162v151h-184v128h184v72zM585 287v-21q0 -36 14 -70t45 -67.5t88 -58.5t135 -36l-63 -126q-210 33 -299 164q-93 -132 -301 -165l-62 127 q77 11 134.5 36t88 58t45 67.5t14.5 70.5v21h161z" />
<glyph unicode="&#xacbc;" d="M101 295l-61 126q139 35 217.5 99t94.5 147h-263v127h437q0 -39 -4 -67h144v118h162v-519h-162v76h-184v128h184v70h-174q-88 -223 -391 -305zM738 289v-30q0 -178 166 -229l-80 -116q-120 40 -170 150q-54 -114 -168 -160q-116 45 -168 157q-52 -107 -167 -147l-80 116 q167 57 167 229v30h157v-30q0 -128 90 -199q92 76 92 199v30h161z" />
<glyph unicode="&#xacbd;" d="M666 582h-174q-82 -217 -390 -300l-62 127q282 69 310 247h-257v127h433q0 -43 -4 -74h144v135h162v-528h-162v71h-184v128h184v67zM514 34q160 0 160 73t-160 73q-161 0 -161 -73t161 -73zM514 303q144 0 232 -53.5t88 -142.5t-88 -142.5t-232 -53.5t-232.5 53.5 t-88.5 142.5t88.5 142.5t232.5 53.5z" />
<glyph unicode="&#xacc1;" d="M666 615h-174q-81 -213 -391 -286l-60 126q279 60 308 225h-260v127h436q0 -42 -4 -71h145v109h162v-483h-162v67h-189v121h189v65zM363 32h484v-117h-646v409h632v-116h-470v-32h451v-111h-451v-33z" />
<glyph unicode="&#xacc4;" d="M500 603v222h150v-881h-150v298h-108v128h108v106h-88q-33 -119 -106.5 -212.5t-200.5 -167.5l-90 113q131 79 192.5 173t74.5 228h-207v127h366q0 -74 -7 -134h66zM696 844h153v-937h-153v937z" />
<glyph unicode="&#xacc8;" d="M840 844v-696h-153v696h153zM494 533h-93q-68 -185 -303 -284l-78 118q118 48 176.5 111.5t73.5 153.5h-188v127h355q0 -51 -6 -99h63v167h150v-654h-150v152h-113v128h113v80zM363 46h506v-127h-668v316h162v-189z" />
<glyph unicode="&#xaccc;" d="M840 844v-463h-153v463h153zM494 608h-81q-32 -94 -107 -159.5t-200 -108.5l-77 119q113 34 169 84t70 121h-183v126h354q0 -32 -3 -61h58v98h150v-445h-150v50h-97v121h97v55zM355 39h511v-124h-673v275h485v33h-486v123h648v-272h-485v-35z" />
<glyph unicode="&#xacd5;" d="M494 586h-85q-32 -96 -105.5 -163t-199.5 -115l-79 116q118 41 174 96.5t69 135.5h-181v127h349q0 -40 -3 -76h61v120h150v-496h-150v76h-90v121h90v58zM680 44v56h-327v-56h327zM680 222v69h160v-372h-647v372h160v-69h327zM687 844h153v-519h-153v519z" />
<glyph unicode="&#xacd7;" d="M840 844v-621h-153v621h153zM494 568h-83q-64 -208 -306 -317l-81 118q116 50 174 115.5t72 158.5h-192v127h359q0 -40 -3 -77h60v133h150v-519h-150v70h-95v126h95v65zM585 270v-21q0 -74 68.5 -135t222.5 -80l-59 -125q-220 29 -311 156q-93 -127 -313 -156l-59 125 q154 19 222.5 80t68.5 135v21h160z" />
<glyph unicode="&#xace0;" d="M776 226l-161 17q38 190 38 402h-532v127h694v-88q0 -252 -39 -458zM482 138h404v-129h-850v129h284v316h162v-316z" />
<glyph unicode="&#xace1;" d="M761 462l-160 14q20 100 22 198h-494v126h657v-64q0 -159 -25 -274zM122 104v126h652v-325h-162v199h-490zM493 422h390v-127h-846v127h294v167h162v-167z" />
<glyph unicode="&#xace4;" d="M759 451l-159 17q20 97 24 200h-494v126h656v-67q0 -163 -27 -276zM293 212v-166h511v-127h-673v293h162zM493 408h389v-127h-844v127h293v166h162v-166z" />
<glyph unicode="&#xace7;" d="M759 478l-159 16q22 90 24 186h-494v126h656v-76q0 -155 -27 -252zM293 137v-96h501v-126h-663v348h650v-126h-488zM493 449h389v-126h-844v126h293v144h162v-144z" />
<glyph unicode="&#xace8;" d="M769 534l-160 12q12 74 14 140h-493v125h656v-53q0 -129 -17 -224zM290 71v-38h520v-123h-682v269h496v36h-497v123h659v-267h-496zM493 504h389v-124h-844v124h293v121h162v-121z" />
<glyph unicode="&#xacea;" d="M765 515l-159 16q15 75 17 151h-493v125h656v-62q0 -140 -21 -230zM276 62v-37q107 1 163 12l9 -115q-68 -13 -271 -13h-57v259h154v31h-155v114h311v-251h-154zM609 197v-172h48v172h-48zM475 -91v404h316v-404h-316zM493 481h389v-125h-844v125h293v135h162v-135z" />
<glyph unicode="&#xacec;" d="M765 519l-160 17q16 74 18 151h-493v125h656v-62q0 -140 -21 -231zM716 324v-90q0 -159 147 -215l-85 -111q-95 40 -139 130q-47 -91 -137 -130l-64 84l5 -70q-67 -13 -266 -13h-57v259h154v31h-155v114h311v-251h-154v-37q103 1 158 12l1 -9q129 66 129 206v90h152z M493 485h390v-125h-845v125h293v136h162v-136z" />
<glyph unicode="&#xacef;" d="M765 529l-160 18q16 75 18 141h-493v125h656v-61q0 -135 -21 -223zM265 70v-35q119 1 180 12l13 -114q-49 -10 -100.5 -12t-183.5 -2h-59v259h148v30h-149v114h299v-252h-148zM647 5q36 0 36 24t-36 24q-37 0 -37 -24t37 -24zM647 156q76 0 123.5 -34.5t47.5 -92.5 t-47.5 -92.5t-123.5 -34.5q-77 0 -124.5 34.5t-47.5 92.5t47.5 92.5t124.5 34.5zM725 347v-61h126v-114h-408v114h126v61h156zM493 500h390v-125h-846v125h294v129h162v-129z" />
<glyph unicode="&#xacf0;" d="M759 483l-159 18q22 89 24 182h-494v126h656v-75q0 -153 -27 -251zM289 139v-99h333v99h-333zM130 -85v349h651v-349h-651zM493 452h390v-126h-845v126h293v148h162v-148z" />
<glyph unicode="&#xacf1;" d="M762 499l-161 13q19 92 23 175h-494v126h657v-54q0 -148 -25 -260zM625 40v58h-333v-58h333zM625 218v75h160v-378h-653v378h160v-75h333zM493 460h390v-126h-845v126h293v147h162v-147z" />
<glyph unicode="&#xacf3;" d="M763 474l-160 15q19 88 21 188h-495v126h657v-77q0 -154 -23 -252zM537 258v-21q0 -32 14.5 -62.5t46 -60t91.5 -51t142 -30.5l-57 -124q-224 27 -318 151q-94 -124 -319 -151l-57 124q82 9 142 30.5t92 51t46.5 60t14.5 62.5v21h162zM493 429h389v-126h-845v126h294v166 h162v-166z" />
<glyph unicode="&#xacf5;" d="M759 476l-159 17q22 90 24 186h-494v126h656v-76q0 -155 -27 -253zM454 24q175 0 175 59q0 60 -175 60t-175 -60q0 -59 175 -59zM454 264q153 0 244.5 -48.5t91.5 -132.5q0 -83 -91.5 -131.5t-244.5 -48.5t-244.5 48.5t-91.5 131.5q0 84 91.5 132.5t244.5 48.5zM493 434 h389v-126h-844v126h293v154h162v-154z" />
<glyph unicode="&#xacf6;" d="M759 502l-158 18q20 82 22 164h-494v127h657v-71q0 -145 -27 -238zM790 163h-239q18 -50 84.5 -86.5t191.5 -47.5l-55 -121q-224 23 -313 138q-91 -115 -315 -138l-55 121q125 11 191.5 47.5t84.5 86.5h-239v125h664v-125zM493 468h389v-127h-845v127h294v137h162v-137z " />
<glyph unicode="&#xacfc;" d="M537 312l-157 14q23 140 23 303h-330v127h489v-91q0 -206 -25 -353zM339 487v-267q146 7 249 20l7 -117q-210 -37 -554 -37l-13 129q98 0 152 1v271h159zM897 475v-132h-113v-436h-162v937h162v-369h113z" />
<glyph unicode="&#xacfd;" d="M541 462l-156 17q16 87 18 180h-331v127h490v-69q0 -153 -21 -255zM588 438l9 -114q-204 -42 -565 -42l-14 126q100 0 156 1v166h159v-161q136 6 255 24zM149 96v126h646v-317h-162v191h-484zM896 610v-131h-101v-224h-162v589h162v-234h101z" />
<glyph unicode="&#xad00;" d="M541 440l-157 19q16 95 18 191h-330v127h490v-63q0 -160 -21 -274zM589 412l10 -113q-207 -40 -567 -42l-14 126q100 0 156 1v170h159v-165q150 9 256 23zM313 206v-160h511v-127h-673v287h162zM795 568h100v-131h-100v-293h-162v700h162v-276z" />
<glyph unicode="&#xad04;" d="M544 520l-156 16q12 72 14 150h-330v125h490v-62q0 -137 -18 -229zM589 499l10 -110q-205 -35 -568 -35l-13 122q101 0 155 1v136h159v-133q162 7 257 19zM298 62v-32h525v-119h-687v260h497v31h-498v117h660v-257h-497zM795 659h101v-130h-101v-180h-162v495h162v-185z " />
<glyph unicode="&#xad06;" d="M544 517l-156 16q12 72 14 153h-330v125h490v-62q0 -139 -18 -232zM590 492l9 -110q-205 -35 -568 -35l-13 122q101 0 155 1v137h159v-134q162 7 258 19zM267 54v-31q116 1 174 13l9 -114q-47 -9 -99 -11t-182 -2h-58v249h166v28h-167v112h323v-244h-166zM613 180v-153 h45v153h-45zM476 -91v389h319v-389h-319zM896 656v-130h-101v-196h-162v514h162v-188h101z" />
<glyph unicode="&#xad0c;" d="M542 491l-157 13q14 71 18 170h-331v127h490v-66q0 -146 -20 -244zM589 465l10 -114q-202 -38 -566 -40l-15 126q100 0 156 1v143h159v-138q142 7 256 22zM307 130v-86h330v86h-330zM148 -81v336h647v-336h-647zM896 629v-131h-101v-206h-162v552h162v-215h101z" />
<glyph unicode="&#xad0d;" d="M544 507l-156 16q12 72 14 154h-330v127h490v-63q0 -140 -18 -234zM593 486l10 -114q-207 -35 -573 -35l-14 126q103 0 158 1v135h159v-132q164 7 260 19zM635 42v55h-327v-55h327zM635 219v59h160v-363h-647v363h160v-59h327zM896 640v-131h-101v-198h-162v533h162v-204 h101z" />
<glyph unicode="&#xad0f;" d="M537 485l-156 13q19 87 21 172h-330v127h490v-63q0 -147 -25 -249zM591 443l9 -114q-206 -39 -568 -39l-14 126q100 0 156 1v158h159v-154q143 7 258 22zM565 252v-21q0 -31 13.5 -59.5t44.5 -57t90 -49.5t141 -30l-58 -126q-223 27 -317 150q-94 -123 -318 -150l-58 126 q82 9 141.5 30t90 49.5t44.5 57t14 59.5v21h172zM795 586h101v-132h-101v-250h-162v640h162v-258z" />
<glyph unicode="&#xad11;" d="M542 487l-157 13q14 71 18 170h-331v127h490v-66q0 -146 -20 -244zM589 454l10 -114q-216 -36 -566 -36l-15 126q101 0 156 1v153h159v-149q140 5 256 19zM471 30q166 0 166 58t-166 58q-167 0 -167 -58t167 -58zM471 269q152 0 242 -48.5t90 -132.5q0 -85 -89.5 -133.5 t-242.5 -48.5t-243 48.5t-90 133.5q0 84 90 132.5t243 48.5zM795 627h101v-131h-101v-217h-162v565h162v-217z" />
<glyph unicode="&#xad18;" d="M445 331l-145 12q19 127 21 278h-266v127h413v-76q0 -195 -23 -341zM274 488v-247q121 5 204 16l9 -116q-161 -33 -446 -33l-19 129h105v251h147zM711 844h153v-937h-153v445h-46v-408h-150v886h150v-350h46v364z" />
<glyph unicode="&#xad1c;" d="M667 449v-293h-150v669h150v-248h40v268h153v-706h-153v310h-40zM449 437l-148 14q14 92 16 198h-254v127h405v-61q0 -160 -19 -278zM484 400l9 -113q-168 -33 -456 -33l-16 126q69 0 109 1v176h147v-172q118 5 207 15zM332 46h547v-127h-711v289h164v-162z" />
<glyph unicode="&#xad20;" d="M667 515v-172h-150v481h150v-181h40v201h153v-504h-153v175h-40zM454 506l-148 12q9 80 11 153h-254v125h405v-54q0 -137 -14 -236zM483 485l10 -110q-164 -31 -454 -33l-18 122q70 0 109 1v141h147v-137q121 5 206 16zM326 28h555v-119h-715v257h534v27h-535v117h695 v-253h-534v-29z" />
<glyph unicode="&#xad29;" d="M450 492l-148 10q13 78 15 170h-254v125h405v-58q0 -143 -18 -247zM483 462l10 -110q-170 -31 -457 -33l-16 122q70 0 110 1v150h147v-146q121 5 206 16zM700 42v50h-365v-50h365zM700 214v60h160v-359h-685v359h160v-60h365zM707 844h153v-538h-153v192h-40v-183h-150 v509h150v-198h40v218z" />
<glyph unicode="&#xad2c;" d="M667 504v-193h-150v513h150v-192h40v212h153v-541h-153v201h-40zM453 481l-147 15q11 89 11 165h-254v125h405v-57q0 -143 -15 -248zM483 454l10 -110q-155 -33 -455 -36l-16 122q68 0 108 1v158h147v-154q136 8 206 19zM733 271v-11q0 -175 169 -225l-78 -117 q-122 39 -174 149q-53 -113 -167 -158q-116 43 -168 155q-53 -107 -170 -146l-79 117q169 55 169 225v11h157v-11q0 -125 89 -195q93 74 93 195v11h159z" />
<glyph unicode="&#xad2d;" d="M455 474l-148 11q9 89 11 172h-255v125h405v-59q0 -143 -13 -249zM481 444l11 -109q-156 -34 -455 -37l-16 122q69 0 109 1v151h147v-147q121 7 204 19zM515 23q94 0 136.5 13t42.5 43t-42.5 43.5t-136.5 13.5q-93 0 -136 -13.5t-43 -43.5t42.5 -43t136.5 -13zM515 256 q162 0 253.5 -46.5t91.5 -130.5t-91.5 -130.5t-253.5 -46.5t-253.5 46.5t-91.5 130.5t91.5 130.5t253.5 46.5zM707 844h153v-583h-153v231h-40v-200h-150v532h150v-204h40v224z" />
<glyph unicode="&#xad34;" d="M569 328l-158 15q19 116 21 274h-335v127h495v-84q0 -195 -23 -332zM358 450v-238q155 5 276 20l13 -116q-223 -38 -594 -38l-19 129q107 0 165 1v242h159zM679 845h162v-942h-162v942z" />
<glyph unicode="&#xad35;" d="M564 457l-157 17q17 89 19 185h-322v127h481v-70q0 -155 -21 -259zM630 432l9 -113q-212 -36 -584 -38l-20 126q108 0 166 1v159h156v-155q158 7 273 20zM162 107v127h667v-329h-162v202h-505zM667 844h162v-570h-162v570z" />
<glyph unicode="&#xad38;" d="M830 844v-700h-162v700h162zM567 448l-157 20q17 83 19 189h-334v127h493v-82q0 -159 -21 -254zM628 407l10 -113q-220 -36 -587 -36l-18 126q113 0 174 1v173h156v-169q139 5 265 18zM347 46h503v-127h-665v287h162v-160z" />
<glyph unicode="&#xad3c;" d="M830 844v-495h-162v495h162zM559 513l-156 17q15 75 17 151h-317v125h477v-62q0 -139 -21 -231zM629 495l9 -110q-213 -34 -584 -36l-20 122q110 0 170 1v133h156v-129q148 5 269 19zM331 26h527v-117h-687v258h499v31h-500v116h660v-255h-499v-33z" />
<glyph unicode="&#xad44;" d="M567 481l-159 12q13 89 15 172h-318v127h478v-65q0 -146 -16 -246zM628 454l10 -110q-208 -38 -585 -43l-18 122q48 0 166 2v144h156v-139q144 6 271 24zM334 118v-78h336v78h-336zM175 -85v328h654v-328h-654zM667 844h162v-565h-162v565z" />
<glyph unicode="&#xad45;" d="M571 501l-158 14q12 76 14 164h-322v126h483v-62q0 -143 -17 -242zM628 473l10 -110q-206 -33 -585 -35l-18 122q111 0 171 1v137h156v-134q167 7 266 19zM669 42v51h-330v-51h330zM669 215v66h160v-366h-650v366h160v-66h330zM667 842h162v-528h-162v528z" />
<glyph unicode="&#xad47;" d="M829 844v-631h-162v631h162zM566 475l-158 20q13 69 15 172h-318v127h478v-81q0 -151 -17 -238zM628 448l10 -114q-220 -35 -584 -35l-19 126q108 0 166 1v141h155v-138q149 5 272 19zM584 266v-11q0 -35 14 -68t45.5 -65t89.5 -56t137 -34l-60 -125q-219 31 -309 164 q-92 -133 -310 -164l-60 125q79 10 137.5 34t89.5 56t45.5 65t14.5 68v11h166z" />
<glyph unicode="&#xad49;" d="M829 844v-570h-162v570h162zM565 471l-156 18q13 83 15 180h-319v126h478v-71q0 -154 -18 -253zM628 445l10 -110q-206 -33 -585 -35l-18 122q108 0 166 1v146h156v-143q170 7 271 19zM496 26q167 0 167 57t-167 57q-168 0 -168 -57t168 -57zM496 263q155 0 245.5 -48 t90.5 -132t-90.5 -132t-245.5 -48q-156 0 -246.5 48t-90.5 132t90.5 132t246.5 48z" />
<glyph unicode="&#xad50;" d="M789 244l-162 16q30 172 32 385h-544v127h706v-85q0 -245 -32 -443zM588 138h298v-129h-851v129h163v288h159v-288h72v288h159v-288z" />
<glyph unicode="&#xad54;" d="M782 452l-159 14q15 101 17 204h-517v127h677v-68q0 -163 -18 -277zM293 209v-163h511v-127h-673v290h162zM593 395h289v-127h-845v127h159v164h159v-164h79v164h159v-164z" />
<glyph unicode="&#xad58;" d="M785 531l-158 15q10 61 12 144h-516v125h677v-62q0 -135 -15 -222zM290 71v-38h520v-123h-682v269h496v36h-497v123h659v-267h-496zM589 501h293v-125h-845v125h161v131h159v-131h73v131h159v-131z" />
<glyph unicode="&#xad61;" d="M776 494l-157 17q13 85 17 177h-518v126h679v-51q0 -152 -21 -269zM625 40v58h-333v-58h333zM625 218v75h160v-378h-653v378h160v-75h333zM583 459h300v-127h-846v127h159v147h159v-147h69v147h159v-147z" />
<glyph unicode="&#xad63;" d="M793 469l-158 14q16 88 18 198h-527v126h687v-81q0 -158 -20 -257zM537 258v-21q0 -32 14.5 -62.5t46 -60t92 -51.5t142.5 -31l-57 -123q-226 27 -319 151q-93 -124 -320 -151l-57 123q82 9 142.5 31t92.5 51.5t46.5 60t14.5 62.5v21h162zM588 425h298v-127h-851v127h165 v166h159v-166h70v166h159v-166z" />
<glyph unicode="&#xad6c;" d="M885 395v-129h-348v-361h-164v361h-337v129h573q22 120 24 271h-505v127h664v-84q0 -184 -23 -314h116z" />
<glyph unicode="&#xad6d;" d="M885 361h-344v-111h249v-345h-162v219h-508v126h259v111h-343v127h577q16 85 18 191h-493v127h653v-78q0 -146 -17 -240h111v-127z" />
<glyph unicode="&#xad70;" d="M291 228v-182h511v-127h-673v309h162zM774 457h111v-127h-336v-185h-162v185h-351v127h576q18 96 20 220h-494v127h654v-85q0 -159 -18 -262z" />
<glyph unicode="&#xad73;" d="M885 366h-344v-101h246v-125h-492v-100h506v-125h-668v350h246v101h-343v127h578q15 84 17 187h-493v127h653v-78q0 -143 -16 -236h110v-127z" />
<glyph unicode="&#xad74;" d="M885 405h-344v-68h245v-267h-496v-37h520v-123h-682v268h496v36h-497v123h252v68h-343v125h578q14 78 16 155h-492v125h653v-65q0 -129 -16 -215h110v-125z" />
<glyph unicode="&#xad75;" d="M885 403h-345v-87h250v-412h-159v286h-151v107h-41v-240h-162v-32q157 1 219 17l14 -114q-46 -12 -106.5 -15.5t-217.5 -3.5h-65v258h162v31h-163v118h259v87h-343v127h577q15 76 17 154h-492v127h653v-65q0 -130 -16 -216h110v-127z" />
<glyph unicode="&#xad76;" d="M609 197v-172h48v172h-48zM885 396h-345v-83h251v-404h-316v365h-45v-213h-154v-36q107 1 163 12l9 -115q-68 -13 -271 -13h-57v258h154v32h-155v114h259v83h-342v126h576q16 80 18 162h-492v126h653v-65q0 -134 -18 -223h112v-126z" />
<glyph unicode="&#xad7b;" d="M647 4q36 0 36 23t-36 23q-37 0 -37 -23t37 -23zM647 151q76 0 123.5 -33.5t47.5 -90.5t-47 -90.5t-124 -33.5t-124.5 33.5t-47.5 90.5t47.5 90.5t124.5 33.5zM725 346v-70h126v-114h-408v114h126v70h156zM776 532h109v-126h-354v-106h-118v-236h-148v-29q119 1 180 12 l13 -114q-48 -10 -100 -12t-184 -2h-59v254h148v27h-149v114h256v92h-334v126h577q15 84 17 154h-492v125h653v-58q0 -130 -15 -221z" />
<glyph unicode="&#xad7c;" d="M625 40v99h-333v-99h333zM885 365h-344v-101h243v-349h-651v349h246v101h-343v127h575q16 85 18 191h-496v127h656v-78q0 -146 -17 -240h113v-127z" />
<glyph unicode="&#xad7d;" d="M624 39v63h-336v-63h336zM624 224v81h161v-390h-657v390h160v-81h336zM774 503h111v-127h-348v-110h-162v110h-339v127h577q14 83 16 182h-496v127h656v-78q0 -141 -15 -231z" />
<glyph unicode="&#xad7f;" d="M541 225v-21q0 -27 13.5 -53t44.5 -51.5t89.5 -44.5t139.5 -26l-54 -121q-226 23 -317 140q-96 -119 -317 -140l-54 121q150 15 219 67t69 108v21h167zM772 498h113v-127h-346v-112h-162v112h-341v127h576q16 91 18 184h-492v127h652v-63q0 -145 -18 -248z" />
<glyph unicode="&#xad81;" d="M629 89q0 31 -40.5 44.5t-128.5 13.5t-128.5 -13.5t-40.5 -44.5q0 -32 40.5 -45.5t128.5 -13.5t128.5 13.5t40.5 45.5zM885 368h-344v-98q118 -12 184.5 -59t66.5 -122q0 -88 -89 -137t-243 -49t-243 49t-89 137q0 74 66 121t185 60v98h-343v127h577q16 86 18 192h-493 v127h653v-78q0 -146 -17 -241h111v-127z" />
<glyph unicode="&#xad82;" d="M885 376h-345v-86h250v-125h-239q41 -114 276 -135l-55 -121q-224 23 -313 138q-89 -115 -314 -138l-55 121q236 21 277 135h-240v125h251v86h-342v127h579q13 94 15 178h-492v127h652v-58q0 -142 -17 -247h112v-127z" />
<glyph unicode="&#xad88;" d="M626 446l10 -114q-98 -16 -236 -27v-364h-162v355q-93 -4 -198 -4l-19 126q238 2 361 8q22 112 24 223h-310v127h470v-63q0 -157 -22 -276q39 4 82 9zM685 844h162v-937h-162v223h-173v123h173v591z" />
<glyph unicode="&#xad89;" d="M239 243v163q-93 -4 -195 -4l-19 126q238 2 364 9q12 68 16 141h-294v126h453v-46q0 -118 -15 -208q52 5 82 10l11 -114q-105 -20 -241 -30v-173h-162zM169 80v125h679v-301h-162v176h-517zM686 844h162v-602h-162v39h-170v116h170v447z" />
<glyph unicode="&#xad8c;" d="M516 348h168v496h162v-706h-162v87h-168v123zM312 46h554v-127h-715v286h114v172q-128 -5 -217 -5l-19 126q235 2 359 9q14 91 17 169h-290v127h452v-31q0 -134 -17 -252q41 3 79 9l11 -113q-98 -18 -214 -28v-194h-114v-148z" />
<glyph unicode="&#xad90;" d="M516 448h170v396h162v-520h-162v22h-170v102zM237 324v124q-101 -3 -186 -3l-18 119q232 2 353 9q12 59 17 119h-283v125h441v-42q0 -109 -15 -190q35 3 93 11l10 -108q-101 -18 -250 -31v-133h-162zM338 23h535v-114h-695v247h510v27h-512v114h672v-247h-510v-27z" />
<glyph unicode="&#xad9c;" d="M516 425h170v419h162v-560h-162v25h-170v116zM239 284v144q-93 -4 -195 -4l-19 126q239 2 366 10q10 62 14 126h-294v126h453v-45q0 -112 -13 -195q49 5 80 10l11 -114q-105 -20 -241 -30v-154h-162zM750 253v-12q0 -161 162 -206l-77 -117q-118 37 -169 140 q-49 -108 -160 -150q-113 42 -162 147q-50 -100 -165 -137l-76 117q85 27 123.5 81.5t38.5 124.5v11h157v-11q0 -112 82 -178q86 68 86 178v11z" />
<glyph unicode="&#xad9d;" d="M516 401h169v443h162v-588h-162v31h-169v114zM237 260v148q-60 -2 -188 -4l-19 122q237 2 361 9q15 76 18 144h-295v125h452v-51q0 -118 -16 -205q53 5 86 10l10 -110q-108 -20 -247 -30v-158h-162zM511 25q93 0 134 10.5t41 37.5t-41 37.5t-134 10.5t-134 -10.5 t-41 -37.5t41 -37.5t134 -10.5zM511 243q161 0 251 -44.5t90 -125.5t-90 -125.5t-251 -44.5t-251 44.5t-90 125.5t90 125.5t251 44.5z" />
<glyph unicode="&#xada4;" d="M490 462l11 -113q-57 -12 -160 -21v-350h-153v340q-75 -4 -153 -4l-13 126q137 0 252 5q19 97 22 180h-225v127h380v-45q0 -140 -20 -251q9 0 59 6zM525 274v556h150v-886h-150v207h-128v123h128zM718 844h153v-937h-153v937z" />
<glyph unicode="&#xadb7;" d="M859 844v-658h-153v658h153zM383 395h136v427h150v-578h-150v37h-136v114zM188 212v199q-75 -4 -154 -4l-14 126q139 0 254 5q12 61 18 126h-214v126h369v-41q0 -114 -17 -200q36 4 53 6l10 -113q-58 -11 -152 -20v-210h-153zM595 214v-10q0 -30 13 -56.5t43.5 -51.5 t89 -43t140.5 -25l-57 -120q-224 23 -311 132q-93 -111 -318 -132l-55 120q160 14 225.5 62.5t65.5 113.5v10h164z" />
<glyph unicode="&#xadc0;" d="M640 448l11 -117q-111 -17 -240 -25v-354h-162v345q-105 -3 -199 -3l-19 129q202 0 347 6q22 114 24 227h-299v127h460v-62q0 -160 -22 -282q51 5 99 9zM684 844h162v-937h-162v937z" />
<glyph unicode="&#xadc1;" d="M414 381v-144h416v-333h-162v207h-501v126h85v134q-69 -3 -201 -5l-20 126q225 2 343 9q18 85 22 175h-287v127h448v-58q0 -134 -19 -232q32 4 94 12l9 -114q-94 -18 -227 -30zM668 844h162v-571h-162v571z" />
<glyph unicode="&#xadc4;" d="M830 844v-700h-162v700h162zM309 46h541v-127h-701v291h124v142q-99 -5 -222 -5l-20 126q212 0 358 8q17 96 19 181h-298v127h459v-59q0 -137 -17 -236q71 8 80 9l11 -112q-93 -19 -209 -29v-182h-125v-134z" />
<glyph unicode="&#xadc8;" d="M830 844v-477h-162v477h162zM346 30h510v-121h-673v269h484v33h-486v120h66v93q-67 -3 -197 -5l-19 122q235 2 355 8q14 64 18 138h-287v125h448v-60q0 -114 -16 -191q51 5 83 10l10 -110q-95 -17 -233 -28v-102h421v-265h-484v-36z" />
<glyph unicode="&#xadd0;" d="M671 40v99h-321v-99h321zM418 383v-119h412v-349h-639v349h65v108q-69 -3 -205 -5l-20 126q229 2 349 9q14 86 16 167h-287v127h448v-63q0 -129 -13 -218q30 3 88 11l9 -114q-96 -19 -223 -29zM668 844h162v-542h-162v542z" />
<glyph unicode="&#xadd1;" d="M244 305v108q-63 -2 -194 -4l-19 126q234 2 354 8q17 80 19 154h-295v127h456v-66q0 -123 -16 -204q24 2 80 8l11 -114q-103 -16 -234 -26v-117h-162zM669 39v54h-336v-54h336zM669 213v59h161v-357h-657v357h160v-59h336zM668 845h162v-534h-162v534z" />
<glyph unicode="&#xadd3;" d="M827 844v-654h-162v654h162zM241 205v169q-100 -3 -187 -3l-19 126q204 0 347 7q18 85 20 177h-283v127h444v-64q0 -136 -17 -228q12 1 25.5 2.5t30 3.5t25.5 3l11 -114q-97 -17 -235 -28v-178h-162zM613 255v-11q0 -76 63.5 -134.5t212.5 -76.5l-61 -125 q-211 30 -298 155q-91 -125 -314 -155l-59 125q81 9 140.5 31t90.5 52t45 61.5t14 66.5v11h166z" />
<glyph unicode="&#xaddc;" d="M885 396v-129h-187v-365h-161v365h-166v-365h-161v365h-174v129h559q24 144 26 271h-490v129h651v-55q0 -187 -27 -345h130z" />
<glyph unicode="&#xade0;" d="M278 233v-187h539v-127h-700v314h161zM774 460h111v-127h-197v-191h-159v191h-53v-191h-159v191h-281v127h577q17 89 19 217h-499v127h659v-85q0 -158 -18 -259z" />
<glyph unicode="&#xade4;" d="M526 337v71h-133v-71h133zM885 408h-198v-71h99v-267h-496v-37h520v-123h-682v268h496v36h-497v123h105v71h-196v125h578q14 76 16 153h-492v125h653v-65q0 -128 -15 -213h109v-125z" />
<glyph unicode="&#xadf8;" d="M753 193l-161 14q32 177 32 431h-505v127h667v-120q0 -91 -1 -141.5t-9 -136.5t-23 -174zM35 150h850v-130h-850v130z" />
<glyph unicode="&#xadf9;" d="M124 123v126h667v-345h-162v219h-505zM774 470h111v-127h-850v127h578q16 103 18 208h-494v127h654v-65q0 -156 -17 -270z" />
<glyph unicode="&#xadfc;" d="M300 242v-196h517v-127h-678v323h161zM772 437h113v-127h-850v127h575q20 100 22 230h-495v127h655v-85q0 -165 -20 -272z" />
<glyph unicode="&#xadff;" d="M295 144v-104h506v-126h-668v356h654v-126h-492zM772 471h113v-127h-849v127h575q18 92 20 207h-493v127h653v-80q0 -154 -19 -254z" />
<glyph unicode="&#xae00;" d="M290 71v-38h520v-123h-682v278h496v38h-497v123h659v-278h-496zM774 524h111v-126h-849v126h576q16 77 18 157h-492v127h653v-65q0 -132 -17 -219z" />
<glyph unicode="&#xae01;" d="M277 57v-32q156 1 219 17l15 -114q-47 -12 -108 -15.5t-217 -3.5h-65v258h162v32h-163v117h319v-259h-162zM480 190v126h310v-412h-159v286h-151zM771 500h114v-127h-849v127h575q16 82 20 179h-493v127h653v-68q0 -140 -20 -238z" />
<glyph unicode="&#xae08;" d="M292 139v-99h333v99h-333zM133 -85v349h651v-349h-651zM770 473h115v-127h-849v127h574q19 97 21 206h-493v127h653v-78q0 -152 -21 -255z" />
<glyph unicode="&#xae09;" d="M626 42v63h-335v-63h335zM626 227v84h161v-396h-656v396h160v-84h335zM771 486h114v-127h-849v127h575q18 87 20 196h-493v127h653v-78q0 -146 -20 -245z" />
<glyph unicode="&#xae0b;" d="M537 261v-24q0 -32 14.5 -62.5t46 -60.5t92 -51.5t142.5 -30.5l-57 -124q-225 27 -319 151q-94 -124 -319 -151l-57 124q82 9 142 30.5t92 51.5t46.5 60.5t14.5 62.5v24h162zM762 449h120v-127h-845v127h565q18 103 22 226h-486v127h646v-63q0 -164 -22 -290z" />
<glyph unicode="&#xae0d;" d="M460 32q87 0 128 14t41 46t-41 46t-128 14t-128 -14t-41 -46t41 -46t128 -14zM460 280q154 0 243 -49.5t89 -138.5t-89 -138.5t-243 -49.5t-243 49.5t-89 138.5t89 138.5t243 49.5zM771 468h113v-127h-849v127h575q19 98 21 208h-493v127h653v-78q0 -155 -20 -257z" />
<glyph unicode="&#xae14;" d="M543 314l-159 16q24 127 26 287h-318v127h478v-87q0 -202 -27 -343zM48 114l-14 129q368 0 583 29l9 -116q-212 -40 -578 -42zM656 844h162v-938h-162v938z" />
<glyph unicode="&#xae30;" d="M87 749h457q0 -118 -19 -211.5t-65 -183t-131.5 -164t-211.5 -134.5l-84 126q171 82 250.5 185.5t95.5 254.5h-292v127zM662 844h162v-937h-162v937z" />
<glyph unicode="&#xae31;" d="M96 794h436q0 -391 -434 -503l-61 125q286 69 321 251h-262v127zM174 140v127h647v-360h-162v233h-485zM659 844h162v-542h-162v542z" />
<glyph unicode="&#xae34;" d="M819 845v-683h-162v683h162zM103 776h442q0 -197 -110 -328t-326 -192l-62 127q286 77 325 264h-269v129zM347 45h489v-127h-651v304h162v-177z" />
<glyph unicode="&#xae37;" d="M832 844v-520h-162v520h162zM88 794h432q0 -191 -106.5 -317t-314.5 -182l-64 125q273 71 311 245h-258v129zM366 41h484v-126h-646v371h628v-126h-466v-119z" />
<glyph unicode="&#xae38;" d="M821 844v-467h-162v467h162zM99 815h438q0 -199 -102 -306.5t-332 -150.5l-55 128q159 25 229 76.5t81 125.5h-259v127zM348 38h493v-123h-656v272h473v33h-474v122h637v-269h-473v-35z" />
<glyph unicode="&#xae3a;" d="M97 811h437q0 -193 -105 -306.5t-325 -158.5l-55 127q280 52 308 212h-260v126zM293 68v-33q102 1 180 15l10 -120q-85 -16 -283 -16h-60v264h173v28h-174v118h327v-256h-173zM638 209v-180h48v180h-48zM503 -86v410h318v-410h-318zM659 844h162v-482h-162v482z" />
<glyph unicode="&#xae40;" d="M93 794h438q0 -192 -111 -317.5t-323 -179.5l-61 126q143 35 223.5 99t97.5 146h-264v126zM351 162v-122h311v122h-311zM192 -85v372h629v-372h-629zM659 844h162v-520h-162v520z" />
<glyph unicode="&#xae41;" d="M95 802h437q0 -197 -104 -311.5t-329 -163.5l-56 127q286 57 313 221h-261v127zM661 42v63h-312v-63h312zM661 227v75h160v-387h-632v387h160v-75h312zM659 844h162v-509h-162v509z" />
<glyph unicode="&#xae43;" d="M821 844v-616h-162v616h162zM99 776h437q0 -398 -433 -521l-61 126q288 79 322 268h-265v127zM579 280v-28q0 -76 67 -138.5t217 -81.5l-60 -124q-216 30 -307 163q-92 -133 -308 -163l-60 124q78 10 135.5 33.5t88.5 55t45.5 64t14.5 67.5v28h167z" />
<glyph unicode="&#xae45;" d="M819 844v-542h-162v542h162zM94 786h435q0 -193 -110.5 -322.5t-322.5 -186.5l-61 126q142 37 222.5 103.5t97.5 152.5h-261v127zM499 30q84 0 124 16t40 51q0 67 -164 67q-163 0 -163 -67q0 -35 40 -51t123 -16zM499 290q150 0 237.5 -51.5t87.5 -141.5t-87.5 -141.5 t-237.5 -51.5q-149 0 -236.5 51.5t-87.5 141.5t87.5 141.5t236.5 51.5z" />
<glyph unicode="&#xae46;" d="M818 844v-515h-162v515h162zM93 792h438q0 -383 -435 -482l-53 126q144 32 221 91.5t92 137.5h-263v127zM824 169h-239q6 -33 31 -59.5t88.5 -50t159.5 -31.5l-53 -120q-220 20 -310 126q-88 -106 -307 -126l-52 120q137 12 202 51t74 90h-230v126h636v-126z" />
<glyph unicode="&#xae4a;" d="M819 844v-501h-162v501h162zM104 785h444q0 -375 -432 -468l-62 124q145 29 224.5 86.5t94.5 130.5h-269v127zM439 182v-138h129v138h-129zM727 44h109v-125h-664v125h108v138h-99v125h645v-125h-99v-138z" />
<glyph unicode="&#xae4c;" d="M56 751h253q0 -123 -4.5 -197.5t-21.5 -162t-54 -158.5t-97 -140l-124 91q84 96 114 192t35 246h-101v129zM342 751h227q0 -126 -5.5 -211.5t-22.5 -179t-53 -172t-94 -152.5l-125 89q82 110 112.5 220t35.5 277h-75v129zM898 487v-132h-112v-449h-162v938h162v-357h112z " />
<glyph unicode="&#xae4d;" d="M383 303l-111 90q72 58 105.5 117t43.5 145h-76v127h229q0 -169 -41 -278.5t-150 -200.5zM59 782h253q0 -163 -42 -266.5t-158 -189.5l-101 99q70 51 103.5 102.5t43.5 127.5h-99v127zM144 118v127h636v-341h-162v214h-474zM897 613v-131h-117v-200h-162v561h162v-230 h117z" />
<glyph unicode="&#xae4e;" d="M384 313l-112 90q72 58 105.5 117t43.5 145h-76v127h229q0 -169 -41 -278.5t-149 -200.5zM59 792h253q0 -163 -42 -267t-158 -189l-101 99q70 50 103.5 102t43.5 128h-99v127zM118 142v127h318v-364h-159v237h-159zM470 142v127h310v-364h-159v237h-151zM897 639v-131 h-117v-203h-162v538h162v-204h117z" />
<glyph unicode="&#xae50;" d="M371 242l-103 100q76 67 110.5 135t44.5 167h-82v127h233q0 -184 -42.5 -306t-160.5 -223zM59 771h252q0 -171 -41 -285t-152 -209l-103 99q68 61 101 121t43 147h-100v127zM312 221v-175h497v-127h-659v302h162zM780 569h117v-131h-117v-277h-162v683h162v-275z" />
<glyph unicode="&#xae54;" d="M385 356l-110 93q69 51 102 102t43 125h-80v127h234q0 -159 -40.5 -261t-148.5 -186zM55 803h253q0 -157 -40 -254.5t-153 -180.5l-102 99q66 46 98.5 93t42.5 116h-99v127zM300 71v-33h509v-123h-669v270h480v31h-481v122h641v-267h-480zM780 675h117v-131h-117v-172 h-162v473h162v-170z" />
<glyph unicode="&#xae56;" d="M115 372l-101 99q65 45 97 90.5t43 112.5h-99v127h253q0 -155 -40 -251.5t-153 -177.5zM259 65v-33q101 1 169 14l13 -118q-79 -15 -279 -15h-59v261h158v29h-159v117h315v-255h-158zM339 801h235q0 -163 -39.5 -265t-149.5 -187l-109 93q70 51 102.5 103.5t41.5 128.5 h-81v127zM597 204v-175h46v175h-46zM460 -87v407h320v-407h-320zM896 671l1 -130h-117v-182h-162v485h162v-173h116z" />
<glyph unicode="&#xae5c;" d="M384 304l-113 90q72 60 105 121t43 151h-77v127h229q0 -172 -39.5 -284t-147.5 -205zM59 793h253q0 -165 -41.5 -270t-156.5 -192l-102 99q70 51 103 104.5t43 131.5h-99v127zM317 153v-113h305v113h-305zM158 -85v363h622v-363h-622zM897 648v-131h-117v-202h-162v528 h162v-195h117z" />
<glyph unicode="&#xae5d;" d="M388 315l-114 89q70 60 102.5 119t42.5 146h-78v127h230q0 -170 -39 -280t-144 -201zM59 796h253q0 -163 -41.5 -266.5t-156.5 -189.5l-102 99q70 51 103 102.5t43 127.5h-99v127zM620 42v62h-305v-62h305zM620 226v69h160v-380h-625v380h160v-69h305zM897 657v-131h-117 v-197h-162v514h162v-186h117z" />
<glyph unicode="&#xae5f;" d="M384 288l-114 91q72 61 106 123.5t43 152.5h-81v127h233q0 -174 -39.5 -287t-147.5 -207zM119 313l-104 98q68 55 99.5 109.5t40.5 134.5h-101v127h253q0 -168 -38.5 -273.5t-149.5 -195.5zM553 261v-13q0 -74 66.5 -135t216.5 -80l-61 -125q-212 30 -302 156 q-92 -126 -302 -156l-61 125q149 19 215.5 80t66.5 135v13h161zM780 608h117v-131h-117v-259h-162v626h162v-236z" />
<glyph unicode="&#xae60;" d="M391 305l-114 91q71 60 104 119t43 147h-78v127h232q0 -171 -39.5 -281.5t-147.5 -202.5zM120 332l-102 100q70 50 102.5 102t42.5 128h-99v127h254q0 -164 -41 -267.5t-157 -189.5zM718 280v-17q0 -177 165 -229l-79 -116q-122 43 -169 150q-53 -114 -168 -160 q-115 44 -168 157q-51 -106 -165 -147l-80 116q165 58 165 229v17h157v-17q0 -127 90 -199q92 76 92 199v17h160zM780 648h117v-131h-117v-196h-162v523h162v-196z" />
<glyph unicode="&#xae61;" d="M384 308l-113 90q72 59 105 119.5t43 148.5h-78v127h230q0 -172 -39.5 -283t-147.5 -202zM59 793h253q0 -166 -41.5 -271t-156.5 -192l-102 99q70 52 103 105.5t43 131.5h-99v127zM469 30q161 0 161 65q0 35 -39 50.5t-122 15.5t-122.5 -15.5t-39.5 -50.5q0 -65 162 -65z M469 286q148 0 235 -51t87 -140t-87.5 -139.5t-234.5 -50.5q-148 0 -235.5 50.5t-87.5 139.5t87.5 140t235.5 51zM780 646h117v-131h-117v-210h-162v538h162v-197z" />
<glyph unicode="&#xae65;" d="M385 350l-109 93q68 51 101 102.5t43 125.5h-80v127h234q0 -159 -40.5 -261t-148.5 -187zM55 798h253q0 -157 -40 -254.5t-153 -180.5l-102 99q66 46 98.5 93t42.5 116h-99v127zM319 62v-37h485v-111h-646v400h628v-111h-467v-34h458v-107h-458zM780 661h117v-131h-117 v-183h-162v496h162v-182z" />
<glyph unicode="&#xae68;" d="M51 738h215q0 -206 -27.5 -351t-104.5 -270l-123 68q60 99 86.5 195.5t32.5 230.5h-79v127zM293 738h194q0 -220 -28 -377t-105 -293l-126 67q63 110 89 217.5t31 258.5h-55v127zM720 844h153v-937h-153v465h-46v-428h-150v886h150v-330h46v344z" />
<glyph unicode="&#xae69;" d="M343 296l-124 81q61 65 87 127t33 154h-49v127h198q0 -176 -28.5 -284.5t-116.5 -204.5zM47 785h217q0 -165 -25 -261t-111 -186l-117 86q53 55 76.5 106.5t30.5 127.5h-71v127zM176 135v126h682v-356h-162v230h-520zM705 844h153v-547h-153v212h-41v-208h-150v528h150 v-192h41v207z" />
<glyph unicode="&#xae6c;" d="M664 453v-270h-150v646h150v-248h41v264h153v-683h-153v291h-41zM354 271l-125 77q57 69 81 134.5t30 163.5h-49v127h194q0 -183 -24.5 -292.5t-106.5 -209.5zM51 773h217q0 -173 -25.5 -273t-112.5 -193l-117 85q56 59 79.5 114.5t30.5 139.5h-72v127zM336 46h544v-127 h-706v312h162v-185z" />
<glyph unicode="&#xae70;" d="M664 534v-164h-150v459h150v-167h41v182h153v-477h-153v167h-41zM346 356l-117 86q55 54 79 105t32 127h-51v127h198q0 -165 -26 -260.5t-115 -184.5zM53 801h212q0 -152 -25.5 -238.5t-113.5 -170.5l-110 89q50 47 73 89t31 104h-67v127zM372 38h509v-123h-674v270h486 v29h-487v122h652v-266h-486v-32z" />
<glyph unicode="&#xae78;" d="M359 307l-127 80q54 66 77 127t29 154h-48v127h195q0 -180 -23 -285t-103 -203zM47 795h217q0 -165 -25 -261t-111 -186l-117 86q53 55 76.5 106.5t30.5 127.5h-71v127zM360 149v-109h339v109h-339zM201 -85v359h657v-359h-657zM705 844h153v-533h-153v200h-41v-195h-150 v514h150v-191h41v205z" />
<glyph unicode="&#xae79;" d="M375 336l-127 75q50 64 70.5 121.5t25.5 146.5h-49v127h192q0 -180 -18.5 -277.5t-93.5 -192.5zM56 806h217q0 -165 -26 -261.5t-115 -186.5l-116 87q55 55 79.5 106.5t31.5 127.5h-71v127zM696 42v69h-336v-69h336zM696 233v69h161v-387h-657v387h160v-69h336zM704 844 h153v-509h-153v186h-38v-181h-150v486h150v-177h38v195z" />
<glyph unicode="&#xae7b;" d="M665 497v-180h-150v509h150v-201h40v219h153v-607h-153v260h-40zM353 269l-123 77q57 72 81 139.5t29 167.5h-51v127h196q0 -186 -24.5 -297.5t-107.5 -213.5zM51 780h214q0 -70 -1.5 -112.5t-8.5 -95.5t-20.5 -91t-37.5 -80t-60 -82l-118 84q52 59 74 113.5t28 136.5 h-70v127zM612 281v-21q0 -77 68.5 -141.5t220.5 -84.5l-61 -125q-215 30 -308 162q-93 -132 -309 -162l-61 125q80 10 138.5 34.5t90 57t46 66t14.5 68.5v21h161z" />
<glyph unicode="&#xae7c;" d="M666 506v-183h-150v504h150v-193h39v209h153v-528h-153v191h-39zM360 305l-123 79q53 64 75 122t28 147h-50v127h194q0 -175 -22.5 -277t-101.5 -198zM130 339l-115 86q52 55 75.5 105t30.5 123h-71v127h217q0 -163 -25 -257.5t-112 -183.5zM753 279v-25q0 -175 167 -225 l-79 -116q-122 42 -171 149q-51 -114 -168 -159q-115 43 -168 155q-51 -105 -168 -146l-79 117q167 56 167 225v25h157v-25q0 -124 89 -195q93 73 93 195v25h160z" />
<glyph unicode="&#xae7d;" d="M668 499v-187h-150v515h150v-200h38v218h153v-561h-153v215h-38zM354 293l-123 79q55 65 78.5 124.5t29.5 149.5h-49v127h194q0 -175 -24.5 -279.5t-105.5 -200.5zM52 773h217q0 -166 -25 -262.5t-111 -187.5l-117 85q54 56 77.5 108.5t29.5 129.5h-71v127zM532 24 q169 0 169 65t-169 65q-170 0 -170 -65t170 -65zM532 275q151 0 241.5 -50.5t90.5 -135.5t-90.5 -135.5t-241.5 -50.5t-242 50.5t-91 135.5t91 135.5t242 50.5z" />
<glyph unicode="&#xae84;" d="M56 751h253q0 -122 -4.5 -197t-21.5 -162.5t-54 -158.5t-97 -140l-124 92q84 95 114 191t35 246h-101v129zM342 751h227q0 -126 -5.5 -211.5t-22.5 -179t-53 -172t-94 -152.5l-125 89q82 109 112.5 219t35.5 278h-75v129zM897 491h-111v-148h111v-131h-111v-306h-162v938 h162v-222h111v-131z" />
<glyph unicode="&#xae85;" d="M383 303l-111 91q72 57 105.5 116t43.5 145h-76v127h229q0 -169 -41 -278.5t-150 -200.5zM59 782h253q0 -163 -42 -266.5t-158 -189.5l-101 99q70 51 103.5 102.5t43.5 127.5h-99v127zM144 118v127h636v-341h-162v214h-474zM891 605h-111v-72h111v-130h-111v-120h-162 v560h162v-108h111v-130z" />
<glyph unicode="&#xae8c;" d="M385 356l-110 92q69 52 102 102.5t43 125.5h-80v127h234q0 -160 -40.5 -261.5t-148.5 -185.5zM55 803h253q0 -157 -40 -255t-153 -180l-102 99q66 45 98.5 92.5t42.5 116.5h-99v127zM300 71v-33h509v-123h-669v270h480v31h-481v122h641v-267h-480zM889 640h-109v-54h109 v-125h-109v-89h-162v472h162v-79h109v-125z" />
<glyph unicode="&#xaebc;" d="M56 751h253q0 -122 -4.5 -196.5t-21.5 -162t-54 -158.5t-97 -140l-124 91q84 95 114 191.5t35 245.5h-101v129zM659 844h162v-937h-162v473h-116q-36 -196 -151 -344l-125 89q82 110 112.5 220t35.5 277h-75v129h227q0 -156 -8 -243h100v336z" />
<glyph unicode="&#xaebd;" d="M65 788h251q0 -167 -40.5 -272.5t-154.5 -194.5l-103 99q70 53 102.5 107.5t42.5 133.5h-98v127zM169 118v127h651v-341h-162v214h-489zM658 843h162v-561h-162v211h-122q-44 -108 -143 -196l-113 91q71 61 104 122.5t43 150.5h-80v127h232q0 -98 -11 -168h90v223z" />
<glyph unicode="&#xaebe;" d="M65 792h251q0 -165 -40.5 -269t-154.5 -191l-102 98q68 53 101 106t43 129h-98v127zM137 142l-1 127h326v-364h-160v237h-165zM494 142v127h326v-364h-160v237h-166zM658 843h162v-538h-162v195h-122q-43 -107 -142 -194l-113 90q70 60 103 120.5t43 148.5h-81v127h233 q0 -94 -10 -165h89v216z" />
<glyph unicode="&#xaec0;" d="M392 257l-105 97q75 64 108.5 131t41.5 164h-79v127h230q0 -109 -11 -187h81v251h162v-682h-162v304h-114q-43 -112 -152 -205zM75 776h251q0 -171 -42.5 -280.5t-160.5 -200.5l-102 99q74 56 108 113.5t44 141.5h-98v127zM337 46h507v-127h-669v307h162v-180z" />
<glyph unicode="&#xaec4;" d="M402 360l-109 94q66 50 97 102t40 128h-81v127h233q0 -93 -9 -151h85v184h162v-477h-162v167h-118q-42 -97 -138 -174zM65 811h254q0 -154 -39 -249t-150 -176l-102 98q64 45 95 90t41 110h-99v127zM339 34h502v-124h-664v269h481v31h-482v123h644v-269h-481v-30z" />
<glyph unicode="&#xaecc;" d="M65 792h251q0 -163 -40.5 -266t-154.5 -190l-102 99q69 51 101 102.5t42 127.5h-97v127zM338 160v-120h323v120h-323zM179 -85v370h641v-370h-641zM658 843h162v-523h-162v189h-118q-43 -110 -141 -197l-114 91q69 59 101 117.5t41 144.5h-77v127h229q0 -94 -9 -156h88 v207z" />
<glyph unicode="&#xaecd;" d="M72 803h251q0 -163 -40.5 -266t-154.5 -190l-102 98q69 51 101 103t42 128h-97v127zM660 42v66h-312v-66h312zM660 230v71h160v-386h-632v386h160v-71h312zM658 843h162v-504h-162v172h-115q-41 -102 -135 -187l-114 89q67 59 98.5 118t40.5 145h-78v127h230 q0 -92 -10 -165h83v205z" />
<glyph unicode="&#xaecf;" d="M404 294l-114 89q70 62 102 122.5t41 150.5h-79v127h231q0 -87 -9 -161h82v222h162v-626h-162v277h-112q-41 -110 -142 -201zM71 783h251q0 -167 -40.5 -272.5t-154.5 -194.5l-103 99q70 53 102.5 107.5t42.5 133.5h-98v127zM577 272v-11q0 -78 66.5 -142t215.5 -84 l-62 -126q-209 31 -300 162q-90 -130 -302 -163l-61 127q78 10 135 34.5t88 57t45 66t14 68.5v11h161z" />
<glyph unicode="&#xaed0;" d="M399 312l-114 90q69 60 101 118.5t41 144.5h-79v127h231q0 -84 -9 -158h87v209h162v-528h-162v192h-118q-41 -107 -140 -195zM121 336l-102 98q69 51 101 103t42 128h-97v127h251q0 -163 -40.5 -266t-154.5 -190zM729 279v-21q0 -178 167 -229l-80 -116q-121 41 -170 150 q-54 -114 -168 -160q-115 44 -168 157q-51 -106 -167 -147l-80 116q167 57 167 229v21h157v-21q0 -128 90 -199q92 76 92 199v21h160z" />
<glyph unicode="&#xaed1;" d="M394 315l-112 90q70 57 102.5 115.5t42.5 144.5h-80v127h232q0 -94 -11 -163h90v214h162v-541h-162v200h-123q-43 -102 -141 -187zM65 792h251q0 -164 -41.5 -268t-156.5 -190l-102 99q70 51 103 103.5t43 128.5h-97v127zM506 26q161 0 161 70q0 71 -161 71t-161 -71 q0 -70 161 -70zM506 289q145 0 233 -52.5t88 -140.5q0 -87 -88 -139.5t-233 -52.5t-233 52.5t-88 139.5q0 88 88 140.5t233 52.5z" />
<glyph unicode="&#xaed8;" d="M50 741h212q0 -216 -26 -367.5t-100 -283.5l-124 65q61 105 85 208t29 249h-76v129zM518 501v324h150v-881h-150v429h-67q-27 -181 -106 -320l-123 66q64 112 88 223.5t27 269.5h-48v129h184q0 -151 -7 -240h52zM704 843h153v-937h-153v937z" />
<glyph unicode="&#xaed9;" d="M347 301l-122 78q58 65 82.5 126t30.5 153h-51v127h195q0 -96 -5 -156h38v197h150v-528h-150v204h-59q-29 -110 -109 -201zM56 785h209q0 -156 -25.5 -252.5t-104.5 -187.5l-115 84q48 57 70.5 106t29.5 123h-64v127zM168 130v127h686v-352h-162v225h-524zM701 844h153 v-552h-153v552z" />
<glyph unicode="&#xaedc;" d="M855 844v-683h-153v683h153zM348 263l-124 77q59 71 83.5 139t30.5 168h-50v127h193q0 -116 -6 -184h41v237h150v-654h-150v290h-64q-27 -108 -104 -200zM56 774h209q0 -173 -24 -273.5t-107 -194.5l-119 80q54 62 77 119t30 142h-66v127zM339 46h530v-127h-692v303h162 v-176z" />
<glyph unicode="&#xaee8;" d="M346 304l-121 78q58 66 82.5 128.5t30.5 155.5h-51v127h195q0 -108 -6 -170h40v203h150v-519h-150v189h-64q-29 -103 -106 -192zM56 793h209q0 -167 -24 -265.5t-107 -189.5l-119 81q53 59 76.5 113t29.5 134h-65v127zM361 149v-109h333v109h-333zM202 -85v359h651v-359 h-651zM701 843h153v-538h-153v538z" />
<glyph unicode="&#xaeeb;" d="M854 843v-607h-153v607h153zM352 286l-124 77q57 69 80.5 134t28.5 161h-49v127h192q0 -101 -5 -164h39v205h150v-509h-150v177h-58q-28 -114 -104 -208zM56 785h209q0 -167 -24 -265t-107 -190l-119 82q53 58 76.5 112t29.5 134h-65v127zM606 281v-19q0 -75 67.5 -137.5 t218.5 -81.5l-62 -125q-216 31 -307 163q-92 -132 -308 -163l-62 125q151 19 218.5 81.5t67.5 137.5v19h167z" />
<glyph unicode="&#xaeed;" d="M854 843v-556h-153v556h153zM356 298l-124 77q55 68 78 132t28 159h-50v127h193q0 -105 -5 -170h40v203h150v-514h-150v184h-60q-28 -108 -100 -198zM56 793h209q0 -167 -24 -265.5t-107 -189.5l-119 81q53 59 76.5 113t29.5 134h-65v127zM513 26q95 0 138.5 13.5 t43.5 45.5t-43.5 46t-138.5 14q-94 0 -138 -14t-44 -46t43.5 -45.5t138.5 -13.5zM513 268q163 0 256 -48t93 -135q0 -86 -93 -134t-256 -48t-256 48t-93 134q0 87 93 135t256 48z" />
<glyph unicode="&#xaef4;" d="M65 750h253q0 -152 -10.5 -249t-50.5 -200.5t-115 -189.5l-122 92q78 93 109 186t36 232h-100v129zM545 373h114v128h-96q-4 -48 -18 -128zM659 845l162 -1v-937h-162v339h-151q-38 -106 -108 -198l-127 86q77 110 109.5 219t38.5 268h-73v129h226q0 -44 -2 -122h87v217z " />
<glyph unicode="&#xaef8;" d="M394 258l-109 95q72 65 103 131.5t39 164.5h-73v127h224q0 -36 -2 -100h82v165h162v-683h-162v171h-107v127h107v93h-97q-32 -168 -167 -291zM75 776h249q0 -171 -41.5 -280t-157.5 -200l-103 98q72 56 105.5 113.5t43.5 141.5h-96v127zM337 46h507v-127h-669v307h162 v-180z" />
<glyph unicode="&#xaefc;" d="M402 364l-110 92q65 51 95 102t38 126h-78v127h230q0 -46 -1 -67h82v101h162v-478h-162v66h-103v121h103v70h-96q-15 -78 -52.5 -140.5t-107.5 -119.5zM65 811h254q0 -153 -39 -248t-150 -175l-102 99q64 45 95 88.5t41 108.5h-99v127zM339 34h502v-124h-664v269h481v31 h-482v123h644v-269h-481v-30z" />
<glyph unicode="&#xaf07;" d="M400 290l-115 89q69 63 100.5 124.5t39.5 152.5h-74v127h225q0 -31 -2 -81h84v142h162v-631h-162v149h-106v128h106v85h-99q-30 -166 -159 -285zM71 783h251q0 -167 -40.5 -272.5t-154.5 -194.5l-103 99q70 52 102.5 106.5t42.5 134.5h-98v127zM576 259v-11 q0 -74 66.5 -135t216.5 -80l-61 -125q-211 30 -302 155q-92 -125 -302 -155l-60 125q78 10 135 33t87.5 54t44.5 62.5t14 65.5v11h161z" />
<glyph unicode="&#xaf08;" d="M394 314l-113 89q68 59 99.5 117.5t39.5 144.5h-71v127h223q0 -28 -2 -76h87v127h162v-527h-162v74h-108v128h108v71h-102q-32 -161 -161 -275zM121 336l-102 99q69 51 101 102.5t42 127.5h-97v127h251q0 -163 -40.5 -266t-154.5 -190zM729 279v-20q0 -178 167 -230 l-80 -115q-120 40 -170 150q-55 -116 -168 -160q-115 43 -168 157q-52 -107 -167 -147l-80 115q167 57 167 230v20h157v-20q0 -128 90 -199q92 76 92 199v20h160z" />
<glyph unicode="&#xaf0d;" d="M393 337l-114 88q70 57 102 114.5t40 142.5h-72v126h223q0 -49 -1 -73h87v108h162v-491h-162v59h-110v124h110v77h-101q-30 -163 -164 -275zM74 808h246q0 -163 -39.5 -264t-152.5 -186l-103 98q68 50 100 100.5t42 125.5h-93v126zM348 30h489v-116h-651v406h636v-116 h-474v-31h462v-111h-462v-32z" />
<glyph unicode="&#xaf10;" d="M50 741h212q0 -216 -26 -367.5t-100 -283.5l-124 66q61 105 85 207.5t29 248.5h-76v129zM451 373h67v110h-54q-5 -65 -13 -110zM518 611v214h150v-881h-150v301h-94q-30 -105 -79 -192l-123 67q64 111 88 222.5t27 269.5h-48v129h184q0 -88 -2 -130h47zM704 843h153v-937 h-153v937z" />
<glyph unicode="&#xaf2c;" d="M777 282l-159 16q24 165 28 342h-182v127h342v-59q0 -233 -29 -426zM332 275l-158 27q59 172 65 338h-145v127h306v-58q0 -69 -2 -111.5t-18 -134t-48 -188.5zM554 150h330v-129h-850v129h361v271h159v-271z" />
<glyph unicode="&#xaf2d;" d="M778 474l-156 17q27 99 29 189h-188v127h346v-67q0 -158 -31 -266zM345 473l-156 22q38 97 47 185h-135v127h295v-46q0 -162 -51 -288zM126 112v126h652v-329h-162v203h-490zM554 428h329v-127h-846v127h358v150h159v-150z" />
<glyph unicode="&#xaf30;" d="M778 455l-156 17q26 99 30 204h-189v127h346v-71q0 -164 -31 -277zM342 451l-156 26q42 103 51 199h-136v127h295v-53q0 -50 -1.5 -82t-14.5 -95t-38 -122zM304 218v-172h488v-127h-650v299h162zM554 399h329v-127h-846v127h358v158h159v-158z" />
<glyph unicode="&#xaf32;" d="M779 511l-156 17q22 77 28 159h-188v126h346v-61q0 -144 -30 -241zM344 508l-156 24q39 84 48 155h-135v126h295v-57q0 -44 -1.5 -71.5t-14 -79t-36.5 -97.5zM278 278v-217q75 6 140 26l20 -126q-101 -32 -258 -32h-58v349h156zM635 6q38 0 38 19t-38 19q-39 0 -39 -19 t39 -19zM635 147q76 0 124.5 -33.5t48.5 -88.5t-48.5 -88.5t-124.5 -33.5q-77 0 -125.5 33.5t-48.5 88.5t48.5 88.5t125.5 33.5zM713 322v-49h139v-114h-435v114h140v49h156zM554 474h328v-127h-845v127h358v131h159v-131z" />
<glyph unicode="&#xaf34;" d="M779 522l-156 17q23 79 28 156h-188v126h346v-60q0 -142 -30 -239zM344 518l-156 24q40 86 48 153h-135v126h295v-56q0 -43 -1.5 -71t-14 -79t-36.5 -97zM306 65v-32h499v-123h-659v270h468v31h-469v122h629v-268h-468zM552 494h331v-126h-846v126h356v115h159v-115z" />
<glyph unicode="&#xaf3c;" d="M777 477l-156 17q27 101 29 191h-188v126h346v-67q0 -158 -31 -267zM345 476l-156 22q38 98 47 187h-135v126h295v-46q0 -163 -51 -289zM295 128v-88h324v88h-324zM136 -85v338h642v-338h-642zM554 439h329v-127h-846v127h358v144h159v-144z" />
<glyph unicode="&#xaf3d;" d="M777 481l-156 17q27 101 29 191h-188v126h346v-67q0 -158 -31 -267zM345 480l-156 22q38 98 47 187h-135v126h295v-46q0 -163 -51 -289zM618 42v54h-321v-54h321zM618 218v63h160v-366h-641v366h160v-63h321zM554 445h329v-127h-846v127h358v138h159v-138z" />
<glyph unicode="&#xaf3f;" d="M777 472l-156 17q27 100 29 190h-188v126h346v-67q0 -158 -31 -266zM345 471l-156 22q38 97 47 186h-135v126h295v-46q0 -162 -51 -288zM541 262v-17q0 -34 14 -65.5t46 -62t92 -53t142 -31.5l-57 -124q-227 29 -318 154q-91 -125 -318 -154l-58 124q158 18 226.5 78 t68.5 134v17h162zM554 426h328v-127h-845v127h358v153h159v-153z" />
<glyph unicode="&#xaf41;" d="M777 474l-156 17q27 100 29 190h-188v126h346v-67q0 -158 -31 -266zM345 473l-156 22q38 97 47 186h-135v126h295v-46q0 -162 -51 -288zM458 28q85 0 124 13t39 43t-39 43t-124 13t-124 -13t-39 -43t39 -43t124 -13zM458 264q153 0 241.5 -47.5t88.5 -132.5t-88.5 -132.5 t-241.5 -47.5t-241.5 47.5t-88.5 132.5t88.5 132.5t241.5 47.5zM554 427h328v-127h-844v127h357v152h159v-152z" />
<glyph unicode="&#xaf42;" d="M777 482l-156 17q25 92 29 186h-188v126h346v-66q0 -156 -31 -263zM345 481l-156 22q38 100 47 182h-135v126h295v-45q0 -161 -51 -285zM789 147h-218q64 -92 256 -115l-59 -123q-220 27 -309 153q-89 -126 -309 -153l-59 123q192 23 256 115h-217v125h659v-125zM554 450 h328v-127h-845v127h358v141h159v-141z" />
<glyph unicode="&#xaf43;" d="M779 511l-156 17q25 85 28 162h-189v126h347v-62q0 -144 -30 -243zM344 507l-157 24q40 85 49 159h-135v126h295v-57q0 -45 -1.5 -73t-14 -80t-36.5 -99zM783 139h-231q45 -94 268 -111l-52 -119q-217 17 -307 122q-92 -105 -308 -122l-52 119q222 17 267 111h-230v123 h240v65h165v-65h240v-123zM554 480h329v-127h-846v127h358v118h159v-118z" />
<glyph unicode="&#xaf48;" d="M568 333l-147 22q20 117 22 264h-128v129h278v-83q0 -196 -25 -332zM403 445v-228q115 7 201 20l8 -118q-214 -41 -567 -41l-12 129q142 0 223 3v231q-13 -62 -31 -124l-146 30q43 141 47 272h-77v129h228v-60q0 -141 -20 -243h146zM896 472v-132h-93v-434h-162v937h162 v-371h93z" />
<glyph unicode="&#xaf49;" d="M555 465l-152 17q22 88 24 179h-111v127h265v-68q0 -153 -26 -255zM602 429l9 -114q-204 -35 -566 -35l-13 126q142 0 220 2v83q0 -1 -5 -15t-8 -21l-148 21q35 89 38 185h-70v127h220v-76q0 -92 -8 -143h125v-156q117 5 206 16zM140 103v127h667v-325h-162v198h-505z M896 613v-131h-89v-218h-162v579h162v-230h89z" />
<glyph unicode="&#xaf50;" d="M555 506l-151 18q19 74 23 152h-111v126h265v-63q0 -140 -26 -233zM610 487l10 -110q-209 -36 -578 -36l-12 122q144 0 222 2v62q-6 -18 -10 -27l-148 21q31 82 34 155h-69v126h220v-68q0 -86 -9 -138h126v-126q107 4 214 17zM307 56v-28h525v-119h-688v256h500v27h-501 v118h664v-254h-500zM807 652h89v-130h-89v-182h-162v504h162v-192z" />
<glyph unicode="&#xaf5c;" d="M558 475l-151 17q18 84 20 175h-111v127h265v-68q0 -150 -23 -251zM601 441l10 -110q-204 -35 -567 -35l-12 122q142 0 220 2v77q-1 -4 -11 -31l-148 21q33 91 35 180h-69v127h220v-75q0 -93 -9 -146h126v-148q115 5 205 16zM724 253v-11q0 -160 161 -207l-76 -116 q-117 36 -169 140q-53 -110 -167 -150q-116 40 -168 148q-51 -101 -165 -138l-77 116q162 52 162 207v11h157v-11q0 -115 89 -181q93 68 93 181v11h160zM807 631h89v-131h-89v-213h-162v556h162v-212z" />
<glyph unicode="&#xaf5d;" d="M555 476l-152 18q22 84 24 173h-111v127h265v-67q0 -151 -26 -251zM601 447l10 -114q-206 -40 -566 -42l-13 126q141 0 220 3v77q-1 -4 -11 -31l-148 21q33 90 35 180h-69v127h220v-75q0 -91 -8 -142h125v-151q128 9 205 21zM480 29q89 0 129 13.5t40 43.5t-40 43.5 t-129 13.5t-129.5 -13.5t-40.5 -43.5t40.5 -43.5t129.5 -13.5zM480 264q155 0 243.5 -47t88.5 -131t-89 -131t-243 -47q-155 0 -244 47t-89 131t89 131t244 47zM807 620h89v-131h-89v-216h-162v570h162v-223z" />
<glyph unicode="&#xaf64;" d="M463 351l-134 18q17 112 19 245h-86v129h223v-79q0 -191 -22 -313zM325 450v-206q82 4 161 14l9 -114q-168 -33 -457 -33l-17 126q108 0 172 2v148q-3 -11 -11 -35l-136 21q40 123 44 241h-55v129h193v-64q0 -139 -20 -229h117zM711 844h153v-937h-153v458h-41v-421h-150 v886h150v-337h41v351z" />
<glyph unicode="&#xaf65;" d="M469 466l-133 14q16 81 20 179h-89v127h223v-68q0 -151 -21 -252zM493 434l12 -113q-172 -32 -467 -34l-16 126q113 0 179 2v76q-2 -5 -6 -14.5t-6 -13.5l-126 37q36 86 41 159h-60v127h193v-63q0 -97 -13 -157h109v-146q109 8 160 14zM199 114v127h663v-337h-162v210 h-501zM709 843h153v-570h-153v220h-33v-217h-150v546h150v-201h33v222z" />
<glyph unicode="&#xaf79;" d="M676 493v-198h-150v527h150v-201h33v222h153v-579h-153v229h-33zM469 468l-133 14q16 81 20 179h-89v127h223v-68q0 -151 -21 -252zM493 443l12 -113q-170 -39 -467 -39l-16 126q112 0 179 2v74q-2 -5 -6 -14t-6 -14l-126 37q36 86 41 159h-60v127h193v-63 q0 -97 -13 -157h109v-142q99 7 160 17zM523 23q92 0 134.5 13.5t42.5 44.5q0 32 -42 45.5t-135 13.5q-92 0 -134.5 -13.5t-42.5 -45.5q0 -58 177 -58zM523 261q160 0 251.5 -47t91.5 -133q0 -84 -91.5 -131t-251.5 -47t-251.5 47t-91.5 131q0 86 91.5 133t251.5 47z" />
<glyph unicode="&#xaf80;" d="M586 328l-145 21q21 120 23 270h-135v129h282v-84q0 -198 -25 -336zM233 310l-144 29q45 137 49 280h-79v129h226v-76q0 -66 -1.5 -105.5t-14 -112t-36.5 -144.5zM423 456v-241q111 6 213 18l8 -116q-223 -39 -588 -39l-13 129q151 0 233 2v247h147zM672 843h162v-937 h-162v937z" />
<glyph unicode="&#xaf84;" d="M827 843v-691h-162v691h162zM579 456l-144 16q19 84 21 179h-125v127h273v-68q0 -153 -25 -254zM622 406l9 -113q-207 -37 -576 -37l-12 126q149 0 231 2v135q-10 -40 -25 -73l-146 20q37 91 39 185h-72v127h220v-76q0 -93 -9 -145h140v-167q89 4 201 16zM335 46h516 v-127h-678v286h162v-159z" />
<glyph unicode="&#xaf88;" d="M827 844v-501h-162v501h162zM576 505l-145 17q18 77 22 159h-122v126h270v-63q0 -144 -25 -239zM624 486l9 -109q-210 -34 -579 -36l-19 122q153 0 236 2v95q-6 -25 -20 -61l-145 20q29 77 33 162h-72v126h220v-70q0 -82 -7 -129h138v-138q119 7 206 16zM334 29h516v-120 h-678v260h493v28h-494v117h656v-254h-493v-31z" />
<glyph unicode="&#xaf90;" d="M578 480l-144 17q20 88 22 165h-125v127h273v-65q0 -147 -26 -244zM625 447l9 -114q-209 -38 -579 -38l-12 126q149 0 231 2v110q-6 -23 -20 -63l-146 20q30 82 34 172h-72v127h220v-73q0 -84 -7 -131h138v-156q125 7 204 18zM332 118v-78h336v78h-336zM173 -85v328h654 v-328h-654zM665 844h162v-560h-162v560z" />
<glyph unicode="&#xaf91;" d="M578 485l-144 17q20 90 22 166h-125v127h273v-65q0 -148 -26 -245zM625 460l9 -114q-209 -38 -579 -38l-12 126q149 0 231 2v103q-7 -28 -20 -63l-146 19q30 83 34 173h-72v127h220v-73q0 -84 -7 -131h138v-149q125 7 204 18zM667 39v50h-330v-50h330zM667 209v63h160 v-357h-650v357h160v-63h330zM665 844h162v-542h-162v542z" />
<glyph unicode="&#xaf95;" d="M827 844v-575h-162v575h162zM578 476l-144 17q20 88 22 165h-125v127h273v-65q0 -147 -26 -244zM625 440l9 -114q-209 -38 -579 -38l-12 126q149 0 231 2v113q-6 -23 -20 -63l-146 20q30 82 34 172h-72v127h220v-73q0 -84 -7 -132h138v-158q125 7 204 18zM499 24 q170 0 170 57q0 31 -41 44.5t-129 13.5t-128.5 -13.5t-40.5 -44.5q0 -57 169 -57zM499 261q155 0 244 -47.5t89 -132.5q0 -84 -89 -131t-244 -47q-154 0 -243 47t-89 131q0 85 88.5 132.5t243.5 47.5z" />
<glyph unicode="&#xaf9c;" d="M647 150h237v-129h-849v129h243v130l-147 44q83 165 90 314h-137v129h297v-59q0 -55 -1 -85t-11.5 -90t-31.5 -121h97v-262h57v262h153q14 96 18 226h-210v129h369v-60q0 -230 -38 -436l-136 14v-135z" />
<glyph unicode="&#xafb8;" d="M884 418v-129h-349v-381h-162v381h-339v129h185q32 120 34 247h-152v127h311v-76q0 -175 -29 -298h226q23 114 25 247h-161v127h320v-79q0 -175 -24 -295h115z" />
<glyph unicode="&#xafb9;" d="M884 355h-345v-110h234v-341h-162v215h-473v126h239v110h-342v127h191q33 103 37 202h-157v127h315v-66q0 -156 -32 -263h210q27 102 29 202h-158v127h316v-71q0 -154 -26 -258h124v-127z" />
<glyph unicode="&#xafbc;" d="M304 230v-184h488v-127h-650v311h162zM757 456h127v-127h-322v-189h-162v189h-365v127h188q36 108 40 216h-157v127h315v-68q0 -161 -35 -275h209q31 110 33 216h-158v127h316v-71q0 -161 -29 -272z" />
<glyph unicode="&#xafc0;" d="M884 397h-343v-58h240v-271h-489v-35h512v-123h-674v273h489v34h-490v122h250v58h-344v126h198q27 76 31 169h-158v126h315v-79q0 -136 -23 -216h204q22 85 26 169h-158v126h316v-64q0 -138 -24 -231h122v-126z" />
<glyph unicode="&#xafc7;" d="M652 6q36 0 36 21t-36 21t-36 -21t36 -21zM652 152q75 0 123 -34.5t48 -90.5t-48.5 -90t-122.5 -34t-122.5 34t-48.5 90t48 90.5t123 34.5zM731 345v-66h126v-114h-408v114h126v66h156zM762 526h122v-126h-353v-101h-108v-235h-165v-34q131 1 192 13l14 -115 q-49 -10 -103.5 -12t-194.5 -2h-61v257h165v31h-166v115h266v83h-335v126h198q27 76 31 169h-158v126h315v-79q0 -136 -23 -216h204q22 85 26 169h-158v126h316v-64q0 -138 -24 -231z" />
<glyph unicode="&#xafc8;" d="M619 40v102h-324v-102h324zM884 366h-345v-99h239v-352h-642v352h241v99h-342v127h197q28 93 32 186h-157v127h315v-66q0 -147 -27 -247h209q22 91 24 186h-158v127h316v-71q0 -146 -23 -242h121v-127z" />
<glyph unicode="&#xafc9;" d="M623 41v64h-336v-64h336zM623 227v80h161v-392h-657v392h160v-80h336zM762 505h124v-127h-349v-116h-162v116h-339v127h194q28 86 34 179h-157v127h315v-63q0 -144 -29 -243h209q24 92 26 179h-158v127h316v-67q0 -143 -24 -239z" />
<glyph unicode="&#xafcb;" d="M541 214v-11q0 -61 67 -111t222 -64l-53 -121q-228 23 -320 138q-95 -117 -320 -138l-53 121q152 14 221 66t69 109v11h167zM763 485h122v-127h-346v-113h-162v113h-341v127h195q29 94 33 189h-157v127h315v-66q0 -149 -28 -250h209q23 93 25 189h-158v127h316v-71 q0 -147 -23 -245z" />
<glyph unicode="&#xafcd;" d="M625 94q0 32 -40 45.5t-127 13.5q-86 0 -126.5 -13.5t-40.5 -45.5t40.5 -46.5t126.5 -14.5q87 0 127 14t40 47zM884 359h-345v-84q117 -13 182.5 -60t65.5 -121q0 -88 -88 -137t-241 -49t-241 49t-88 137q0 74 65.5 121t182.5 60v84h-342v126h196q29 94 33 190h-157v127 h315v-66q0 -149 -28 -251h209q23 93 25 190h-158v127h316v-71q0 -148 -24 -246h122v-126z" />
<glyph unicode="&#xafce;" d="M884 376h-344v-95h249v-125h-224q61 -100 261 -123l-59 -124q-220 29 -308 153q-86 -124 -308 -153l-59 124q200 23 261 123h-222v125h247v95h-343v127h199q26 86 30 179h-157v127h315v-66q0 -144 -26 -240h209q21 89 23 179h-158v127h316v-71q0 -142 -21 -235h119v-127z " />
<glyph unicode="&#xafd4;" d="M639 435l10 -117q-98 -16 -227 -26v-382h-162v372q-101 -4 -219 -4l-19 129l108 1q29 113 31 232h-91v129h245v-79q0 -168 -26 -279q43 1 131 5q26 107 28 224h-91v129h245v-79q0 -159 -22 -262q11 1 30.5 3.5t28.5 3.5zM683 843h162v-938h-162v219h-180v123h180v596z " />
<glyph unicode="&#xafdc;" d="M515 458h160v386h162v-510h-162v17h-160v107zM237 333v121q-64 -3 -187 -5l-18 123q16 0 52 0.5t55 0.5q18 58 23 116h-93v125h248v-64q0 -107 -19 -173q36 1 115 5q16 59 19 107h-82v125h238v-59q0 -98 -14 -161q11 1 32 3t32 3l10 -110q-104 -17 -249 -27v-130h-162z M329 25h530v-116h-692v253h508v29h-510v115h672v-251h-508v-30z" />
<glyph unicode="&#xafe8;" d="M515 415h160v429h162v-561h-162v21h-160v111zM236 286v127q-58 -2 -186 -4l-18 123q67 0 104 1q22 69 26 145h-93v127h248v-71q0 -124 -22 -197q38 1 114 5q20 71 23 136h-82v127h237v-64q0 -114 -18 -185q21 2 69 8l11 -111q-117 -20 -251 -31v-136h-162zM733 254v-7 q0 -167 170 -214l-77 -116q-124 38 -175 144q-54 -112 -169 -154q-115 42 -167 151q-54 -104 -172 -141l-77 116q169 52 169 214v7h157v-7q0 -120 89 -187q93 71 93 187v7h159z" />
<glyph unicode="&#xafe9;" d="M514 407h161v436h162v-584h-162v32h-161v116zM237 264v148q-59 -2 -187 -4l-18 123q67 0 104 1q23 73 26 146h-93v127h248v-71q0 -124 -22 -198q39 1 115 5q20 72 23 137h-83v127h238v-64q0 -115 -18 -187q41 4 65 7l11 -110q-110 -19 -247 -29v-158h-162zM502 22 q92 0 133 12.5t41 41.5t-41 41.5t-133 12.5t-133 -12.5t-41 -41.5t41 -41.5t133 -12.5zM502 249q160 0 250 -45t90 -128q0 -82 -90 -127.5t-250 -45.5t-250 45.5t-90 127.5q0 83 90 128t250 45z" />
<glyph unicode="&#xaff0;" d="M493 454l10 -111q-71 -15 -161 -25v-342h-153v333q-87 -3 -156 -3l-15 124h69q28 99 30 200h-61v127h203v-70q0 -152 -26 -254q23 1 73 3q22 91 26 194h-47v127h188v-71q0 -143 -21 -237q16 1 41 5zM526 273v558h150v-887h-150v206h-133v123h133zM718 844h153v-937h-153 v937z" />
<glyph unicode="&#xaff1;" d="M398 400h124v427h150v-565h-150v29h-124v109zM197 263v143q-81 -4 -164 -4l-13 122h71q15 60 19 134h-58v126h192v-75q0 -115 -15 -182q54 2 83 4q14 58 18 127h-61v126h195v-75q0 -106 -12 -166q6 1 18 2.5t18 2.5l11 -109q-56 -13 -149 -24v-152h-153zM146 100v126h714 v-321h-162v195h-552zM707 843h153v-584h-153v584z" />
<glyph unicode="&#xaff4;" d="M860 844v-707h-153v707h153zM399 363h123v465h150v-673h-150v94h-123v114zM197 238v142q-81 -4 -164 -4l-13 122h65q20 71 24 152h-57v126h192v-63q0 -127 -20 -212q54 2 82 4q20 74 23 145h-60v126h195v-63q0 -118 -17 -197l42 6l10 -109q-56 -13 -149 -24v-151h-153z M331 46h549v-127h-711v276h162v-149z" />
<glyph unicode="&#xaff8;" d="M860 843v-519h-153v519h153zM398 456h124v372h150v-500h-150v19h-124v109zM197 329v127q-100 -5 -164 -5l-13 121h72q13 49 17 105h-57v126h192v-67q0 -100 -13 -160q54 2 83 4q13 48 15 97h-60v126h195v-69q0 -91 -10 -144l34 4l11 -107q-57 -11 -149 -20v-138h-153z M322 25h560v-116h-720v250h538v26h-539v115h699v-249h-538v-26z" />
<glyph unicode="&#xb000;" d="M398 407h124v420h150v-556h-150v25h-124v111zM197 270v145q-81 -4 -164 -4l-13 122h69q18 62 20 135h-57v126h192v-73q0 -116 -16 -184q54 2 83 4q14 58 18 127h-60v126h195v-64q0 -109 -13 -177q16 1 37 5l11 -109q-56 -13 -149 -24v-155h-153zM317 112v-72h384v72h-384 zM158 -85v322h702v-322h-702zM707 843h153v-575h-153v575z" />
<glyph unicode="&#xb001;" d="M398 419h124v408h150v-541h-150v22h-124v111zM197 290v133q-81 -4 -164 -4l-13 122h71q15 59 19 133h-58v126h192v-75q0 -113 -14 -180q54 2 82 4q16 59 18 125h-61v126h195v-77q0 -104 -12 -162q5 1 17.5 2.5t18.5 2.5l11 -109q-56 -13 -149 -24v-143h-153zM700 39v45 h-384v-45h384zM700 204v52h160v-341h-704v341h160v-52h384zM707 843h153v-560h-153v560z" />
<glyph unicode="&#xb004;" d="M860 843v-575h-153v575h153zM398 407h124v420h150v-556h-150v25h-124v111zM197 270v145q-81 -4 -164 -4l-13 122h69q18 62 20 135h-57v126h192v-73q0 -116 -16 -184q54 2 83 4q14 58 18 127h-60v126h195v-64q0 -109 -13 -177q16 1 37 5l11 -109q-56 -13 -149 -24v-155 h-153zM738 240v-12q0 -156 171 -200l-74 -115q-125 35 -180 138q-52 -109 -166 -148q-117 39 -168 146q-54 -100 -176 -136l-74 115q89 26 129.5 79t40.5 121v11h157v-11q0 -110 90 -174q91 66 91 175v11h159z" />
<glyph unicode="&#xb00c;" d="M642 436l11 -117q-114 -17 -223 -26v-359h-162v349q-101 -4 -219 -4l-19 129l102 1q33 117 35 243h-93v129h250v-80q0 -173 -28 -289q41 1 125 5q29 111 31 235h-91v129h248v-79q0 -165 -25 -272q40 4 58 6zM684 843h162v-937h-162v937z" />
<glyph unicode="&#xb010;" d="M834 844v-700h-162v700h162zM303 46h551v-127h-711v306h125v109q-128 -5 -218 -5l-19 126q67 0 104 1q30 93 32 193h-81v127h238v-82q0 -147 -26 -234q39 1 115 5q26 86 28 184h-86v127h243v-80q0 -136 -20 -217q9 1 27 3.5t27 3.5l10 -113q-93 -17 -214 -29v-156h-125 v-142z" />
<glyph unicode="&#xb014;" d="M834 843v-486h-162v486h162zM338 30h524v-121h-687v267h496v32h-497v120h88v78q-70 -3 -213 -5l-18 123q72 0 112 1q20 71 22 145h-80v127h238v-76q0 -120 -18 -192q13 1 35.5 2t41.5 2t36 2q17 69 19 135h-77v127h235v-68q0 -112 -14 -180l51 6l9 -109 q-109 -20 -217 -29v-89h410v-264h-496v-34z" />
<glyph unicode="&#xb01c;" d="M675 40v95h-343v-95h343zM424 378v-118h410v-345h-661v345h89v108q-94 -5 -211 -5l-19 126q70 0 109 1q24 80 26 169h-81v127h238v-80q0 -133 -20 -212q57 2 114 6q19 71 23 159h-86v127h243v-78q0 -123 -16 -194q9 1 26.5 3t26.5 3l9 -113q-93 -17 -220 -29zM672 844 h162v-552h-162v552z" />
<glyph unicode="&#xb01d;" d="M674 40v55h-369v-55h369zM674 215v77h160v-377h-689v377h121v80q-103 -4 -215 -4l-19 127q71 0 109 1q24 80 26 169h-81v127h238v-80q0 -133 -21 -211q39 1 115 5q19 69 23 159h-86v127h243v-78q0 -123 -16 -194q37 4 53 5l9 -114q-102 -18 -217 -28v-124h-122v-44h369z M672 843h162v-514h-162v514z" />
<glyph unicode="&#xb028;" d="M884 420v-129h-187v-388h-162v388h-159v-388h-162v388h-180v129h186q31 120 33 245h-152v127h311v-76q0 -174 -29 -296h226q23 113 25 245h-161v127h320v-79q0 -174 -23 -293h114z" />
<glyph unicode="&#xb044;" d="M767 231l-159 17q36 197 38 396h-182v127h342v-65q0 -256 -39 -475zM340 230l-158 26q63 188 69 388h-157v127h317v-64q0 -78 -2 -124.5t-19 -145t-50 -207.5zM34 160h850v-130h-850v130z" />
<glyph unicode="&#xb045;" d="M126 131v126h659v-352h-162v226h-497zM763 458h121v-127h-849v127h194q38 113 42 226h-157v127h315v-69q0 -167 -37 -284h210q29 108 33 226h-159v127h316v-74q0 -165 -29 -279z" />
<glyph unicode="&#xb048;" d="M296 239v-193h512v-127h-674v320h162zM760 430h124v-127h-849v127h188q43 128 48 244h-157v127h315v-56q0 -55 -1 -87t-11 -97.5t-29 -130.5h211q31 121 37 244h-159v127h317v-53q0 -178 -34 -318z" />
<glyph unicode="&#xb04a;" d="M278 294v-233q76 6 140 27l20 -127q-101 -32 -258 -32h-58v365h156zM635 9q38 0 38 22q0 23 -38 23q-39 0 -39 -23q0 -22 39 -22zM635 161q76 0 124.5 -36t48.5 -94t-48.5 -93.5t-124.5 -35.5q-77 0 -125.5 35.5t-48.5 93.5t49 94t125 36zM713 346v-54h138v-114h-435v114 h141v54h156zM771 503h113v-127h-849v127h207q28 87 30 188h-158v127h315v-85q0 -145 -24 -230h206q23 92 25 188h-158v127h316v-70q0 -148 -23 -245z" />
<glyph unicode="&#xb04c;" d="M292 77v-39h512v-123h-674v276h489v35h-490v122h652v-271h-489zM760 518h124v-127h-849v127h196q29 84 33 177h-158v126h315v-79q0 -140 -25 -224h203q25 87 29 177h-158v126h316v-64q0 -143 -26 -239z" />
<glyph unicode="&#xb04e;" d="M270 67v-37q112 1 169 12l9 -115q-68 -13 -271 -13h-57v259h160v31h-161v114h311v-251h-160zM609 202v-172h48v172h-48zM475 -86v404h316v-404h-316zM761 495h123v-126h-849v126h195q35 94 37 196h-158v126h315v-82q0 -150 -27 -240h203q27 95 31 196h-158v126h316v-67 q0 -151 -28 -255z" />
<glyph unicode="&#xb053;" d="M258 66v-34q129 1 192 13l14 -118q-50 -9 -104.5 -11t-192.5 -2h-62v258h165v32h-166v116h319v-254h-165zM653 10q36 0 36 22q0 23 -36 23t-36 -23q0 -22 36 -22zM653 162q74 0 122.5 -36t48.5 -94t-48.5 -93.5t-122.5 -35.5t-122.5 35.5t-48.5 93.5t48.5 94t122.5 36z M731 353v-62h126v-114h-408v114h126v62h156zM767 504h117v-126h-850v126h202q33 90 35 191h-158v126h315v-82q0 -148 -26 -235h204q27 100 29 191h-158v126h316v-67q0 -149 -26 -250z" />
<glyph unicode="&#xb054;" d="M292 147v-103h333v103h-333zM133 -81v353h651v-353h-651zM766 477h118v-127h-849v127h199q33 101 37 209h-157v127h315v-69q0 -158 -32 -267h209q25 95 29 209h-159v127h316v-74q0 -156 -26 -262z" />
<glyph unicode="&#xb055;" d="M625 42v67h-335v-67h335zM625 231v83h161v-399h-656v399h160v-83h335zM770 496h114v-126h-849v126h205q29 99 31 194h-157v127h315v-69q0 -150 -27 -252h209q20 86 24 194h-159v127h316v-74q0 -149 -22 -247z" />
<glyph unicode="&#xb057;" d="M541 264v-20q0 -75 68 -134.5t226 -77.5l-60 -124q-222 27 -315 153q-93 -126 -316 -153l-60 124q158 18 226.5 77.5t68.5 134.5v20h162zM765 456h119v-127h-849v127h192q36 113 44 224h-157v127h315v-55q0 -168 -37 -296h212q26 108 32 224h-158v127h316v-53 q0 -168 -29 -298z" />
<glyph unicode="&#xb059;" d="M458 31q164 0 164 63t-164 63t-164 -63t164 -63zM458 285q149 0 239.5 -51.5t90.5 -139.5t-90.5 -139.5t-239.5 -51.5t-239.5 51.5t-90.5 139.5t90.5 139.5t239.5 51.5zM765 460h119v-127h-849v127h196q36 106 40 220h-157v127h315v-69q0 -163 -35 -278h209 q28 100 32 220h-159v127h316v-74q0 -162 -27 -273z" />
<glyph unicode="&#xb05d;" d="M298 71v-38h497v-119h-659v423h651v-117h-489v-36h468v-113h-468zM769 509h115v-127h-849v127h202q30 94 34 180h-157v126h315v-63q0 -144 -30 -243h209q25 85 27 180h-160v126h317v-78q0 -141 -23 -228z" />
<glyph unicode="&#xb07c;" d="M76 751h254q0 -114 -6 -192.5t-24 -161.5t-55.5 -153t-95.5 -136l-123 93q80 94 112 187t38 234h-100v129zM364 751h227q0 -242 -35 -404t-137 -299l-128 87q76 111 108 219.5t38 267.5h-73v129zM660 844h162v-937h-162v937z" />
<glyph unicode="&#xb07d;" d="M420 298l-116 89q66 61 96.5 120.5t39.5 147.5h-83v127h235q0 -172 -35.5 -281.5t-136.5 -202.5zM75 782h252q0 -166 -40 -270.5t-154 -192.5l-104 100q69 52 101.5 105t42.5 131h-98v127zM169 118v127h651v-341h-162v214h-489zM658 843h162v-561h-162v561z" />
<glyph unicode="&#xb080;" d="M820 841v-678h-162v678h162zM407 246l-109 98q74 66 105.5 133.5t39.5 166.5h-84v127h235q0 -189 -36.5 -306t-150.5 -219zM75 771h254q0 -174 -41.5 -285t-157.5 -203l-104 99q73 57 106.5 116.5t42.5 145.5h-100v127zM337 46h507v-127h-669v302h162v-175z" />
<glyph unicode="&#xb084;" d="M820 844v-473h-162v473h162zM407 354l-109 94q67 50 98.5 101.5t40.5 126.5h-81v127h235q0 -163 -37.5 -263.5t-146.5 -185.5zM72 803h255q0 -157 -42 -256.5t-157 -181.5l-100 102q67 47 100 93.5t43 115.5h-99v127zM337 38h508v-123h-668v270h483v30h-484v122h644v-267 h-483v-32z" />
<glyph unicode="&#xb08c;" d="M410 315l-112 89q69 60 100.5 118t41.5 144h-84v127h236q0 -169 -38.5 -278t-143.5 -200zM74 793h251q0 -164 -40.5 -268t-154.5 -191l-102 99q69 51 101.5 103.5t42.5 129.5h-98v127zM338 153v-113h323v113h-323zM179 -85v363h641v-363h-641zM658 843h162v-528h-162v528 z" />
<glyph unicode="&#xb08d;" d="M412 319l-114 89q71 60 103 120t41 148h-78v127h230q0 -172 -38 -282t-144 -202zM81 803h251q0 -166 -42.5 -271t-159.5 -191l-101 99q71 51 105 104.5t44 131.5h-97v127zM660 42v64h-315v-64h315zM660 228v74h160v-387h-635v387h160v-74h315zM658 843h162v-504h-162v504 z" />
<glyph unicode="&#xb08f;" d="M819 844v-626h-162v626h162zM413 295l-113 89q66 61 97 121.5t40 149.5h-78v127h230q0 -172 -36.5 -282.5t-139.5 -204.5zM76 782h251q0 -166 -40.5 -271.5t-154.5 -193.5l-103 98q70 53 102.5 107t42.5 133h-98v127zM593 261v-11q0 -77 67 -137.5t222 -79.5l-61 -125 q-221 31 -311 160q-91 -129 -310 -160l-61 125q154 19 220.5 79.5t66.5 137.5v11h167z" />
<glyph unicode="&#xb091;" d="M820 843v-541h-162v541h162zM415 315l-113 89q67 60 98.5 118.5t40.5 143.5h-79v127h231q0 -169 -37.5 -277.5t-140.5 -200.5zM80 793h251q0 -164 -41.5 -268t-156.5 -190l-102 99q70 51 103 103.5t43 128.5h-97v127zM495 26q170 0 170 65q0 64 -170 64q-169 0 -169 -64 q0 -65 169 -65zM495 279q152 0 242.5 -50.5t90.5 -137.5q0 -88 -90 -138t-243 -50q-152 0 -242 50t-90 138q0 87 90 137.5t242 50.5z" />
<glyph unicode="&#xb098;" d="M220 756v-491q181 5 350 37l17 -131q-193 -40 -444 -40h-84v625h161zM899 500v-132h-121v-460h-162v937h162v-345h121z" />
<glyph unicode="&#xb099;" d="M557 504l18 -128q-190 -38 -425 -38h-81v454h161v-322q171 5 327 34zM152 138v127h628v-360h-162v233h-466zM897 634v-131h-117v-201h-162v542h162v-210h117z" />
<glyph unicode="&#xb09a;" d="M550 526l17 -130q-189 -37 -418 -37h-80v434h161v-302q167 5 320 35zM134 158v127h302v-380h-160v253h-142zM474 158v127h306v-380h-160v253h-146zM897 644v-131h-117v-192h-162v523h162v-200h117z" />
<glyph unicode="&#xb09c;" d="M559 481l18 -128q-190 -38 -426 -38h-82v469h161v-337q172 5 329 34zM325 231v-185h483v-127h-645v312h162zM780 588h117v-134h-117v-283h-162v672h162v-255z" />
<glyph unicode="&#xb09f;" d="M553 516l18 -129q-190 -37 -421 -37h-81v443h161v-311q168 5 323 34zM320 160v-119h484v-126h-646v371h628v-126h-466zM780 652h117v-131h-117v-196h-162v519h162v-192z" />
<glyph unicode="&#xb0a0;" d="M553 568l18 -130q-190 -37 -421 -37h-81v402h161v-270q171 5 323 35zM310 75v-35h494v-125h-656v278h470v33h-471v125h633v-276h-470zM780 680h117v-130h-117v-165h-162v460h162v-165z" />
<glyph unicode="&#xb0a1;" d="M553 553l18 -130q-190 -37 -421 -37h-81v417h161v-285q171 5 323 35zM270 66v-34q157 1 220 17l14 -116q-46 -13 -105 -16t-219 -3h-66v262h162v31h-163v117h319v-258h-162zM470 199v125h310v-420h-159v295h-151zM896 664v-130h-116v-176h-162v486h162v-180h116z" />
<glyph unicode="&#xb0a2;" d="M553 557l18 -132q-189 -37 -421 -37h-81v415h161v-280q168 5 323 34zM263 67v-32q98 1 167 13l12 -118q-84 -16 -276 -16h-59v262h154v28h-155v117h311v-254h-154zM597 205v-175h46v175h-46zM460 -86v407h320v-407h-320zM897 664v-130h-117v-176h-162v486h162v-180h117z " />
<glyph unicode="&#xb0a8;" d="M557 517l18 -128q-190 -38 -425 -38h-81v450h161v-318q171 5 327 34zM317 153v-113h305v113h-305zM158 -85v363h622v-363h-622zM897 656v-131h-117v-209h-162v528h162v-188h117z" />
<glyph unicode="&#xb0a9;" d="M557 533l18 -129q-190 -38 -425 -38h-81v440h161v-308q173 5 327 35zM620 41v67h-308v-67h308zM620 230v77h160v-392h-628v392h160v-77h308zM897 662v-131h-117v-183h-162v496h162v-182h117z" />
<glyph unicode="&#xb0ab;" d="M557 496l18 -129q-191 -38 -425 -38h-81v450h161v-318q172 5 327 35zM553 271v-19q0 -35 14 -67t44.5 -63.5t88.5 -55t136 -33.5l-61 -124q-211 28 -302 156q-93 -128 -302 -156l-61 124q78 10 135.5 33.5t88 55t44.5 63.5t14 67v19h161zM780 618h117v-131h-117v-259 h-162v616h162v-226z" />
<glyph unicode="&#xb0ac;" d="M557 534l18 -129q-190 -38 -425 -38h-81v424h161v-292q173 5 327 35zM718 293v-31q0 -177 165 -229l-79 -116q-122 43 -169 150q-53 -114 -168 -159q-115 43 -168 156q-51 -106 -165 -147l-80 116q165 58 165 229v31h157v-31q0 -127 90 -199q92 76 92 199v31h160z M780 656h117v-131h-117v-195h-162v514h162v-188z" />
<glyph unicode="&#xb0ad;" d="M557 509l18 -128q-190 -38 -425 -38h-81v450h161v-318q171 5 327 34zM466 29q164 0 164 67t-164 67q-163 0 -163 -67t163 -67zM466 289q147 0 236 -52t89 -141t-89 -141t-236 -52t-235.5 52t-88.5 141t88.5 141t235.5 52zM781 637h116v-131h-116v-204h-162v542h162v-207z " />
<glyph unicode="&#xb0ae;" d="M557 536l18 -129q-190 -38 -425 -38h-81v434h161v-302q173 5 327 35zM790 180h-227q16 -51 80.5 -91.5t188.5 -54.5l-59 -121q-213 24 -301 144q-87 -118 -302 -142l-59 121q127 13 191 52.5t79 91.5h-228v125h637v-125zM780 653h117v-131h-117v-183h-162v505h162v-191z " />
<glyph unicode="&#xb0af;" d="M553 565l18 -129q-191 -37 -421 -37h-81v395h161v-263q167 5 323 34zM790 159h-234q13 -48 78 -84t196 -46l-53 -120q-218 20 -308 126q-90 -106 -307 -126l-53 120q131 10 196 46t77 84h-237v123h243v83h162v-83h240v-123zM780 665h117v-131h-117v-194h-162v504h162 v-179z" />
<glyph unicode="&#xb0b1;" d="M553 549l18 -133q-189 -37 -421 -37h-81v419h161v-284q171 5 323 35zM314 65v-33h489v-117h-651v409h632v-116h-470v-32h460v-111h-460zM780 665h117v-131h-117v-176h-162v486h162v-179z" />
<glyph unicode="&#xb0b3;" d="M553 592l18 -129q-190 -37 -421 -37h-81v374h161v-242q168 5 323 34zM463 17q52 0 76 6t24 23t-24 23.5t-76 6.5t-76 -6.5t-24 -23.5t24 -23t76 -6zM463 190q126 0 198.5 -38t72.5 -106q0 -67 -72.5 -105t-198.5 -38t-198.5 38t-72.5 105q0 68 72.5 106t198.5 38z M544 399v-70h252v-120h-664v120h250v70h162zM780 679h117v-130h-117v-182h-162v478h162v-166z" />
<glyph unicode="&#xb0b4;" d="M228 745v-480q115 5 212 23l14 -137q-143 -25 -319 -25h-68v619h161zM690 844h153v-938h-153v459h-58v-417h-150v881h150v-336h58v351z" />
<glyph unicode="&#xb0b5;" d="M438 502l15 -128q-124 -26 -319 -26h-67v436h161v-307q122 5 210 25zM186 138v127h654v-360h-162v233h-492zM687 844h153v-541h-153v202h-52v-198h-150v519h150v-193h52v211z" />
<glyph unicode="&#xb0b8;" d="M635 459v-282h-150v649h150v-239h52v257h153v-691h-153v306h-52zM438 462l15 -128q-124 -26 -319 -26h-67v457h161v-328q122 5 210 25zM354 46h507v-127h-669v316h162v-189z" />
<glyph unicode="&#xb0bc;" d="M635 541v-168h-150v454h150v-159h52v176h153v-472h-153v169h-52zM434 542l15 -128q-122 -23 -316 -23h-66v404h161v-275q110 3 206 22zM355 39h511v-124h-673v273h485v31h-486v123h648v-270h-485v-33z" />
<glyph unicode="&#xb0c4;" d="M437 513l16 -128q-123 -23 -319 -23h-67v422h161v-293q114 3 209 22zM348 160v-120h333v120h-333zM189 -85v370h651v-370h-651zM687 844h153v-523h-153v189h-53v-184h-150v500h150v-188h53v206z" />
<glyph unicode="&#xb0c5;" d="M437 524l16 -128q-123 -23 -319 -23h-67v413h161v-284q114 3 209 22zM680 42v60h-330v-60h330zM680 224v74h160v-383h-650v383h160v-74h330zM687 844h153v-509h-153v184h-53v-174h-150v481h150v-180h53v198z" />
<glyph unicode="&#xb0c7;" d="M634 495v-173h-150v505h150v-204h53v221h153v-602h-153v253h-53zM431 474l18 -120q-117 -33 -317 -33h-65v441h161v-318q111 4 203 30zM594 277v-20q0 -77 68 -140t221 -84l-61 -124q-218 28 -308 160q-92 -132 -309 -160l-60 124q153 21 220.5 84t67.5 140v20h161z" />
<glyph unicode="&#xb0c8;" d="M632 511v-188h-150v504h150v-189h55v206h153v-528h-153v195h-55zM434 513l16 -130q-128 -26 -316 -26h-67v425h161v-293q117 5 206 24zM745 284v-31q0 -175 167 -225l-79 -117q-121 41 -172 149q-51 -113 -166 -158q-116 43 -169 155q-51 -105 -168 -146l-78 117 q166 56 166 225v31h157v-31q0 -124 90 -195q93 74 93 195v31h159z" />
<glyph unicode="&#xb0c9;" d="M632 499v-182h-150v510h150v-200h55v218h153v-557h-153v211h-55zM440 491l16 -130q-129 -27 -322 -27h-67v438h161v-305q111 3 212 24zM516 28q166 0 166 65q0 66 -166 66q-167 0 -167 -66q0 -65 167 -65zM516 283q148 0 238 -51.5t90 -138.5t-90 -138t-238 -51 q-149 0 -239 51t-90 138t90 138.5t239 51.5z" />
<glyph unicode="&#xb0d0;" d="M220 756v-491q181 5 350 37l17 -134q-199 -40 -443 -40h-85v628h161zM891 502h-113v-138h113v-131h-113v-325h-162v937h162v-212h113v-131z" />
<glyph unicode="&#xb0d1;" d="M557 504l18 -128q-190 -38 -425 -38h-81v454h161v-322q171 5 327 34zM152 138v127h628v-360h-162v233h-466zM894 612h-114v-74h114v-130h-114v-106h-162v542h162v-102h114v-130z" />
<glyph unicode="&#xb0d4;" d="M559 481l18 -128q-190 -38 -426 -38h-82v469h161v-337q172 5 329 34zM325 232v-186h483v-127h-645v313h162zM893 573h-113v-96h113v-130h-113v-176h-162v672h162v-140h113v-130z" />
<glyph unicode="&#xb0d8;" d="M553 567l18 -129q-190 -37 -421 -37h-81v402h161v-270q168 5 323 34zM310 75v-35h494v-125h-656v278h470v33h-471v125h633v-276h-470zM896 637h-116v-51h116v-126h-116v-75h-162v459h162v-81h116v-126z" />
<glyph unicode="&#xb0e0;" d="M557 517l18 -128q-190 -38 -425 -38h-81v450h161v-318q171 5 327 34zM317 153v-113h305v113h-305zM158 -85v363h622v-363h-622zM894 612h-114v-68h114v-130h-114v-98h-162v528h162v-102h114v-130z" />
<glyph unicode="&#xb0e5;" d="M557 509l17 -128q-189 -38 -424 -38h-81v450h161v-318q169 5 327 34zM467 29q163 0 163 67t-164 67q-163 0 -163 -67t164 -67zM466 289q147 0 236 -52t89 -141t-89 -141t-236 -52t-235.5 52t-88.5 141t88.5 141t235.5 52zM893 607h-112v-71h113v-130h-113v-104h-162v542 h162v-107h112v-130z" />
<glyph unicode="&#xb108;" d="M243 746v-493q173 5 340 36l16 -131q-190 -39 -434 -39h-83v627h161zM670 844h162v-943h-162v534h-232v129h232v280z" />
<glyph unicode="&#xb109;" d="M577 494l18 -132q-185 -37 -428 -37h-82v472h161v-338q173 5 331 35zM181 126v127h647v-348h-162v221h-485zM666 844h162v-552h-162v277h-206v129h206v146z" />
<glyph unicode="&#xb10b;" d="M666 325v261h-206v129h206v129h162v-519h-162zM574 516l18 -131q-185 -37 -425 -37h-82v449h161v-315q169 5 328 34zM132 156v127h317v-368h-159v241h-158zM760 292v-66q0 -150 146 -197l-79 -123q-102 34 -147 119q-47 -85 -148 -119l-79 123q146 47 146 197v66h161z " />
<glyph unicode="&#xb10c;" d="M666 176v367h-207v129h207v172h162v-668h-162zM574 461l21 -131q-185 -37 -428 -37h-82v491h161v-357q169 5 328 34zM359 46h489v-127h-651v310h162v-183z" />
<glyph unicode="&#xb110;" d="M666 377v223h-206v127h206v118h162v-468h-162zM576 551l19 -129q-193 -35 -428 -35h-82v422h161v-290q182 5 330 32zM362 40h484v-125h-646v275h466v30h-467v125h629v-273h-466v-32z" />
<glyph unicode="&#xb112;" d="M576 529l18 -129q-192 -35 -427 -35h-82v443h161v-311q182 5 330 32zM298 63v-30q104 1 174 14l14 -118q-81 -15 -284 -15h-60v259h166v28h-166v117h322v-255h-166zM638 202v-172h52v172h-52zM501 -86v404h327v-404h-327zM666 844h162v-491h-162v238h-206v127h206v126z " />
<glyph unicode="&#xb113;" d="M576 535l18 -129q-192 -35 -427 -35h-82v436h161v-304q182 5 330 32zM298 64v-31q104 1 174 14l14 -118q-81 -15 -284 -15h-60v260h166v28h-166v117h322v-255h-166zM685 36v86h-40v-86h40zM685 240v87h143v-413h-326v413h143v-87h40zM666 845h162v-487h-162v240h-206v127 h206v120z" />
<glyph unicode="&#xb118;" d="M577 499l18 -132q-185 -37 -428 -37h-82v467h161v-333q173 5 331 35zM352 149v-109h318v109h-318zM193 -85v359h635v-359h-635zM666 844h162v-533h-162v258h-206v129h206v146z" />
<glyph unicode="&#xb119;" d="M577 526l18 -133q-185 -37 -428 -37h-82v443h161v-309q175 5 331 36zM668 42v60h-318v-60h318zM668 224v73h160v-382h-638v382h160v-73h318zM666 844h162v-514h-162v251h-206v129h206v134z" />
<glyph unicode="&#xb11b;" d="M666 228v331h-209v129h209v156h162v-616h-162zM577 488l18 -132q-185 -37 -428 -37h-82v478h161v-344q173 5 331 35zM585 274v-21q0 -35 14 -67t44.5 -63.5t88 -55t135.5 -33.5l-61 -124q-210 28 -301 156q-93 -128 -302 -156l-61 124q78 10 135.5 33.5t88 55t44.5 63.5 t14 67v21h161z" />
<glyph unicode="&#xb11c;" d="M664 322v252h-206v129h206v141h162v-522h-162zM575 514l18 -131q-185 -37 -426 -37h-82v449h161v-315q170 5 329 34zM747 290v-26q0 -177 167 -230l-80 -115q-120 40 -170 150q-55 -116 -168 -160q-115 43 -168 157q-52 -107 -167 -147l-80 115q167 57 167 230v26h157 v-26q0 -128 90 -199q92 76 92 199v26h160z" />
<glyph unicode="&#xb11d;" d="M666 303v266h-206v129h206v146h162v-541h-162zM577 504l18 -132q-185 -37 -428 -37h-82v453h161v-319q173 5 331 35zM506 26q164 0 164 68t-164 68q-165 0 -165 -68t165 -68zM506 285q150 0 238 -51t88 -140t-88 -140t-238 -51q-151 0 -239 51t-88 140t88 140t239 51z " />
<glyph unicode="&#xb123;" d="M666 367v248h-211v127h211v102h162v-477h-162zM576 580l18 -129q-191 -35 -427 -35h-82v381h162v-249q172 5 329 32zM498 15q59 0 85 6t26 23t-26 23t-85 6t-84.5 -6t-25.5 -23t25.5 -23t84.5 -6zM498 186q127 0 199.5 -37.5t72.5 -104.5t-73 -104.5t-199 -37.5 t-198.5 38t-72.5 104q0 67 72.5 104.5t198.5 37.5zM579 324h261v-120h-682v120h259v68h162v-68z" />
<glyph unicode="&#xb124;" d="M225 760v-501q121 3 219 23l20 -134q-126 -26 -329 -26h-69v638h159zM497 558v272h150v-886h-150v485h-170v129h170zM696 844h153v-938h-153v938z" />
<glyph unicode="&#xb125;" d="M502 293v253h-145v127h145v154h150v-534h-150zM448 470l18 -127q-128 -28 -323 -28h-67v463h159v-334q119 5 213 26zM195 122v127h654v-345h-162v218h-492zM696 845h153v-558h-153v558z" />
<glyph unicode="&#xb128;" d="M849 844v-687h-153v687h153zM502 177v343h-145v127h145v179h150v-649h-150zM449 441l19 -127q-123 -24 -325 -24h-67v480h159v-351q116 3 214 22zM368 47h502v-129h-664v316h162v-187z" />
<glyph unicode="&#xb12c;" d="M849 844v-477h-153v477h153zM502 370v218h-145v125h145v116h150v-459h-150zM452 537l18 -127q-126 -24 -326 -24h-68v406h159v-277q116 3 217 22zM364 38h511v-123h-673v270h485v30h-486v122h648v-267h-485v-32z" />
<glyph unicode="&#xb134;" d="M502 317v243h-145v127h145v139h150v-509h-150zM446 497l16 -127q-123 -23 -319 -23h-67v442h159v-313q112 3 211 21zM364 153v-113h326v113h-326zM205 -85v363h644v-363h-644zM696 844h153v-532h-153v532z" />
<glyph unicode="&#xb135;" d="M502 336v232h-145v127h145v132h150v-491h-150zM450 512l20 -127q-127 -29 -326 -29h-68v436h159v-307q122 5 215 27zM689 42v55h-324v-55h324zM689 219v75h160v-379h-644v379h160v-75h324zM696 844h153v-514h-153v514z" />
<glyph unicode="&#xb137;" d="M849 844v-631h-153v631h153zM502 296v231h-145v127h145v174h150v-532h-150zM443 462l15 -127q-127 -32 -316 -32h-66v460h159v-330q117 6 208 29zM594 257v-21q0 -70 67.5 -128.5t220.5 -75.5l-58 -124q-219 29 -310 151q-93 -123 -310 -151l-58 124q80 9 138.5 31 t89.5 51.5t45 59.5t14 62v21h161z" />
<glyph unicode="&#xb138;" d="M849 844v-532h-153v532h153zM502 320v239h-145v127h145v142h150v-508h-150zM444 498l18 -127q-128 -27 -319 -27h-67v444h159v-315q114 5 209 25zM745 280v-20q0 -175 167 -226l-79 -116q-120 39 -172 149q-54 -116 -167 -158q-115 42 -168 155q-52 -106 -168 -146 l-78 116q166 55 166 226v20h157v-20q0 -124 89 -195q93 73 93 195v20h160z" />
<glyph unicode="&#xb139;" d="M849 844v-565h-153v565h153zM502 308v232h-145v128h145v160h150v-520h-150zM446 467l16 -128q-123 -23 -319 -23h-67v461h159v-332q114 3 211 22zM523 26q166 0 166 63q0 62 -166 62q-167 0 -167 -62q0 -63 167 -63zM523 274q147 0 237.5 -50.5t90.5 -134.5 q0 -85 -90.5 -135.5t-237.5 -50.5q-148 0 -238.5 50.5t-90.5 135.5q0 84 90.5 134.5t238.5 50.5z" />
<glyph unicode="&#xb140;" d="M243 751v-521q174 1 309 26l14 -131q-147 -29 -404 -29h-80v655h161zM670 844h162v-942h-162v421h-229v129h229v81h-229v129h229v182z" />
<glyph unicode="&#xb141;" d="M532 457l19 -129q-148 -27 -389 -27h-77v496h161v-364q152 1 286 24zM177 122v127h651v-345h-162v218h-489zM666 844h162v-556h-162v190h-201v121h201v40h-201v121h201v84z" />
<glyph unicode="&#xb144;" d="M666 157v295h-206v125h206v47h-206v125h206v95h162v-687h-162zM545 424l14 -130q-159 -28 -396 -28h-78v523h161v-391q163 3 299 26zM359 46h489v-127h-651v300h162v-173z" />
<glyph unicode="&#xb148;" d="M666 362v164h-200v121h200v28h-200v121h200v49h162v-483h-162zM537 512l14 -127q-125 -21 -389 -21h-77v453h161v-325q179 2 291 20zM362 38h479v-123h-641v266h466v30h-466v122h628v-266h-466v-29z" />
<glyph unicode="&#xb150;" d="M530 460l17 -127q-152 -26 -383 -26h-76v500h161v-371q155 3 281 24zM355 135v-95h314v95h-314zM196 -85v345h632v-345h-632zM666 845h162v-548h-162v190h-201v121h201v43h-201v121h201v73z" />
<glyph unicode="&#xb151;" d="M543 480l12 -127q-140 -22 -390 -22h-77v482h161v-354q178 3 294 21zM668 41v58h-308v-58h308zM668 221v70h160v-376h-628v376h160v-70h308zM666 845h162v-520h-162v175h-201v121h201v38h-201v121h201v65z" />
<glyph unicode="&#xb154;" d="M664 311v184h-199v121h199v43h-199v121h199v65h162v-534h-162zM534 471l13 -127q-150 -24 -383 -24h-76v481h161v-352q149 2 285 22zM747 278v-15q0 -178 167 -229l-80 -116q-120 41 -170 150q-55 -114 -168 -160q-115 44 -168 157q-52 -106 -167 -147l-80 116 q167 57 167 229v15h157v-15q0 -128 90 -199q92 76 92 199v15h160z" />
<glyph unicode="&#xb155;" d="M666 288v206h-201v121h201v39h-201v121h201v70h162v-557h-162zM563 468l18 -127q-148 -28 -413 -28h-80v488h161v-359q185 3 314 26zM506 27q85 0 124.5 14.5t39.5 47.5q0 32 -39.5 46.5t-124.5 14.5t-125 -14t-40 -47t39.5 -47.5t125.5 -14.5zM506 274q151 0 238.5 -49 t87.5 -136q0 -88 -87.5 -137t-238.5 -49q-152 0 -239.5 49t-87.5 137q0 87 87.5 136t239.5 49z" />
<glyph unicode="&#xb158;" d="M528 485l17 -126q-136 -26 -381 -26h-76v469h161v-340q158 1 279 23zM180 163v125h648v-384h-162v106l-489 -28l-13 122l502 18v41h-486zM666 845h162v-520h-162v180h-201v121h201v35h-201v121h201v63z" />
<glyph unicode="&#xb15c;" d="M225 741v-485q115 3 213 22l16 -135q-121 -24 -320 -24h-68v622h159zM497 667v164h150v-887h-150v395h-145v129h145v70h-145v129h145zM696 844h153v-938h-153v938z" />
<glyph unicode="&#xb160;" d="M849 845v-702h-153v702h153zM502 163v268h-135v123h135v48h-135v123h135v102h150v-664h-150zM435 407l19 -127q-101 -22 -312 -22h-66v508h159v-379q113 1 200 20zM368 46h502v-127h-664v291h162v-164z" />
<glyph unicode="&#xb178;" d="M541 131h344v-129h-849v129h343v194h-253v451h162v-324h511v-127h-258v-194z" />
<glyph unicode="&#xb179;" d="M128 107v127h656v-329h-162v202h-494zM541 420h346v-127h-851v127h343v84h-245v329h162v-202h498v-127h-253v-84z" />
<glyph unicode="&#xb17c;" d="M293 211v-165h506v-127h-668v292h162zM542 385h344v-127h-850v127h344v99h-244v339h162v-212h493v-127h-249v-99z" />
<glyph unicode="&#xb180;" d="M290 69v-34h524v-121h-687v266h499v32h-500v120h663v-263h-499zM542 497h343v-126h-850v126h345v58h-246v281h162v-156h493v-125h-247v-58z" />
<glyph unicode="&#xb182;" d="M271 62v-32q114 1 173 12l8 -115q-67 -13 -273 -13h-58v253h160v26h-161v114h311v-245h-160zM608 191v-161h48v161h-48zM474 -86v393h316v-393h-316zM542 474h343v-126h-850v126h345v60h-246v299h162v-174h493v-125h-247v-60z" />
<glyph unicode="&#xb188;" d="M296 128v-88h330v88h-330zM137 -85v338h647v-338h-647zM541 428h345v-127h-850v127h343v75h-242v329h162v-203h493v-126h-251v-75z" />
<glyph unicode="&#xb189;" d="M624 42v54h-325v-54h325zM624 218v63h160v-366h-645v366h160v-63h325zM541 446h346v-126h-851v126h343v72h-242v318h162v-192h494v-126h-252v-72z" />
<glyph unicode="&#xb18b;" d="M544 256v-11q0 -75 67.5 -134.5t223.5 -77.5l-59 -124q-224 29 -314 156q-92 -127 -315 -156l-59 124q156 18 223.5 77.5t67.5 134.5v11h165zM544 423h342v-127h-850v127h346v76h-245v333h162v-207h483v-126h-238v-76z" />
<glyph unicode="&#xb18d;" d="M457 26q87 0 126 12.5t39 41.5t-39 41.5t-126 12.5t-125.5 -12t-38.5 -42q0 -29 39 -41.5t125 -12.5zM457 256q154 0 241.5 -46.5t87.5 -129.5t-87.5 -129.5t-241.5 -46.5q-153 0 -240.5 46.5t-87.5 129.5t87.5 129.5t240.5 46.5zM541 421h346v-126h-851v126h343v78h-242 v331h162v-205h494v-126h-252v-78z" />
<glyph unicode="&#xb192;" d="M400 161v-121h120v121h-120zM679 161v-121h128v-125h-692v125h126v121h-118v125h675v-125h-119zM541 460h345v-126h-851v126h344v61h-242v305h162v-179h498v-126h-256v-61z" />
<glyph unicode="&#xb193;" d="M457 10q64 0 91 4.5t27 17.5q0 14 -27 18.5t-91 4.5t-91 -4.5t-27 -18.5q0 -13 27 -17.5t91 -4.5zM457 162q137 0 213 -33.5t76 -96.5q0 -62 -76 -95.5t-213 -33.5t-213 33.5t-76 95.5q0 63 76 96.5t213 33.5zM539 352v-53h267v-119h-696v119h267v53h162zM546 501h339 v-125h-850v125h349v52h-246v276h162v-153h497v-123h-251v-52z" />
<glyph unicode="&#xb194;" d="M401 368v-157q106 5 184 13l10 -114q-200 -31 -554 -29l-19 126h217v161h-162v400h162v-273h324v-127h-162zM896 481v-132h-102v-442h-162v938h162v-364h102z" />
<glyph unicode="&#xb198;" d="M594 400l11 -112q-207 -43 -574 -43l-14 126q138 0 215 2v98h-148v320h162v-194h296v-126h-148v-91q121 9 200 20zM313 198v-152h511v-127h-673v279h162zM797 573h100v-132h-100v-297h-162v700h162v-271z" />
<glyph unicode="&#xb19c;" d="M598 501l9 -110q-207 -32 -573 -32l-13 122q131 0 202 1v62h-142v270h162v-144h306v-126h-164v-58q113 5 213 15zM302 62v-32h520v-121h-683v264h496v29h-496v119h659v-259h-496zM798 660h99v-130h-99v-177h-162v491h162v-184z" />
<glyph unicode="&#xb1a8;" d="M599 460l9 -109q-207 -40 -567 -42l-16 122q128 0 201 2v73h-147v293h162v-167h306v-126h-159v-66q144 10 211 20zM710 262v-13q0 -167 166 -214l-77 -116q-120 38 -173 144q-51 -110 -168 -154q-115 42 -167 151q-52 -104 -169 -141l-78 116q167 53 167 214v13h157v-13 q0 -120 89 -187q93 72 93 187v13h160zM797 631h100v-131h-100v-202h-162v546h162v-213z" />
<glyph unicode="&#xb1cc;" d="M426 367v-149q117 7 199 17l10 -118q-216 -36 -584 -34l-15 129q148 0 228 1v154h-168v401h162v-274h335v-127h-167zM672 844h162v-937h-162v937z" />
<glyph unicode="&#xb1d0;" d="M824 844v-691h-162v691h162zM622 404l9 -114q-211 -32 -580 -32l-15 126q147 0 224 1v99h-150v304h162v-178h302v-126h-152v-94q119 5 200 14zM326 46h512v-127h-674v292h162v-165z" />
<glyph unicode="&#xb1d4;" d="M821 844v-477h-162v477h162zM624 515l9 -111q-222 -32 -586 -32l-15 122q155 0 237 1v64h-159v259h162v-134h311v-125h-152v-59q128 8 193 15zM337 33h501v-123h-664v271h484v31h-485v122h648v-267h-484v-34z" />
<glyph unicode="&#xb1dc;" d="M623 460l11 -113q-221 -41 -586 -43l-16 126q106 0 230 3v82h-156v290h162v-165h307v-125h-151v-74q110 6 199 19zM336 125v-85h330v85h-330zM177 -85v335h647v-335h-647zM662 844h162v-560h-162v560z" />
<glyph unicode="&#xb1dd;" d="M622 476l8 -114q-219 -37 -585 -37l-14 126q150 0 231 2v72h-156v285h162v-160h307v-125h-151v-66q119 7 198 17zM664 39v53h-327v-53h327zM664 213v69h160v-367h-647v367h160v-69h327zM662 844h162v-523h-162v523z" />
<glyph unicode="&#xb1df;" d="M824 844v-635h-162v635h162zM619 427l9 -114q-218 -32 -579 -32l-16 126q150 0 230 2v96h-157v287h164v-162h305v-125h-150v-92q90 4 194 14zM578 248v-11q0 -70 67 -128t219 -75l-58 -126q-220 29 -311 152q-89 -123 -310 -152l-59 126q80 9 138.5 30.5t89 51t44.5 59.5 t14 62v11h166z" />
<glyph unicode="&#xb1e8;" d="M395 323v-181h129v181h-129zM685 142h201v-129h-851v129h199v181h-110v444h162v-317h512v-127h-113v-181z" />
<glyph unicode="&#xb1e9;" d="M128 111v127h656v-329h-162v202h-494zM389 506v-87h137v87h-137zM688 419h199v-127h-850v127h190v87h-93v327h162v-200h497v-127h-105v-87z" />
<glyph unicode="&#xb1ec;" d="M293 212v-166h506v-127h-668v293h162zM394 486v-102h133v102h-133zM688 384h198v-127h-850v127h197v102h-97v337h162v-210h493v-127h-103v-102z" />
<glyph unicode="&#xb1f0;" d="M290 63v-33h524v-121h-687v265h499v32h-500v120h663v-263h-499zM394 552v-62h132v62h-132zM688 490h197v-126h-849v126h196v62h-98v284h162v-159h493v-125h-101v-62z" />
<glyph unicode="&#xb1f9;" d="M624 42v54h-325v-54h325zM624 218v63h160v-366h-645v366h160v-63h325zM390 520v-73h138v73h-138zM689 447h198v-126h-850v126h192v73h-92v316h162v-190h493v-126h-103v-73z" />
<glyph unicode="&#xb1fb;" d="M543 252v-11q0 -73 67.5 -132t223.5 -77l-58 -123q-225 27 -315 153q-92 -126 -316 -153l-58 123q156 18 223.5 76.5t67.5 132.5v11h165zM393 502v-82h134v82h-134zM688 420h198v-127h-849v127h195v82h-95v330h162v-204h483v-126h-94v-82z" />
<glyph unicode="&#xb1fd;" d="M458 27q86 0 125 12.5t39 41.5t-39 41.5t-125 12.5q-87 0 -126 -12.5t-39 -41.5t39 -41.5t126 -12.5zM458 257q153 0 240.5 -46.5t87.5 -129.5t-87.5 -129.5t-240.5 -46.5q-154 0 -241.5 46.5t-87.5 129.5t87.5 129.5t241.5 46.5zM390 500v-80h139v80h-139zM690 420h196 v-126h-849v126h192v80h-92v330h162v-204h493v-126h-102v-80z" />
<glyph unicode="&#xb204;" d="M803 564v-127h-665v368h162v-241h503zM886 349v-129h-349v-316h-162v316h-340v129h851z" />
<glyph unicode="&#xb205;" d="M794 631v-127h-660v329h162v-202h498zM887 317h-346v-83h243v-329h-162v202h-494v127h251v83h-343v127h851v-127z" />
<glyph unicode="&#xb208;" d="M794 609v-126h-655v341h162v-215h493zM293 207v-162h506v-126h-668v288h162zM37 416h849v-126h-331v-148h-162v148h-356v126z" />
<glyph unicode="&#xb20b;" d="M792 628v-126h-655v329h165v-203h490zM886 323h-344v-79h244v-126h-497v-77h507v-126h-668v329h252v79h-344v126h850v-126z" />
<glyph unicode="&#xb20c;" d="M789 676v-125h-655v286h162v-161h493zM885 383h-346v-57h250v-263h-499v-33h524v-121h-687v265h499v32h-501v120h252v57h-342v126h850v-126z" />
<glyph unicode="&#xb214;" d="M792 629v-126h-655v329h162v-203h493zM626 40v88h-330v-88h330zM886 320h-348v-67h246v-338h-647v338h239v67h-340v127h850v-127z" />
<glyph unicode="&#xb215;" d="M793 644v-126h-656v318h162v-192h494zM624 42v50h-325v-50h325zM624 214v74h160v-373h-645v373h160v-74h325zM36 466h851v-126h-346v-91h-162v91h-343v126z" />
<glyph unicode="&#xb217;" d="M795 640v-126h-656v313h162v-187h494zM541 215v-10q0 -61 67 -111.5t221 -64.5l-54 -120q-228 21 -318 139q-96 -119 -318 -139l-54 120q151 15 220 67t69 109v10h167zM35 462h851v-127h-346v-82h-162v82h-343v127z" />
<glyph unicode="&#xb219;" d="M793 625v-126h-656v331h162v-205h494zM622 80q0 29 -39 41.5t-125 12.5q-87 0 -126 -12.5t-39 -41.5t39 -41.5t125 -12.5q87 0 126 12.5t39 41.5zM887 315h-346v-63q116 -11 180.5 -56t64.5 -116q0 -83 -87.5 -129.5t-240.5 -46.5q-154 0 -241.5 46.5t-87.5 129.5 q0 72 65.5 116.5t184.5 55.5v63h-343v126h851v-126z" />
<glyph unicode="&#xb220;" d="M569 599v-126h-463v329h162v-203h301zM610 415l9 -118q-104 -15 -210 -21v-343h-162v336q-71 -2 -206 -2l-18 130q398 0 587 18zM675 844h162v-937h-162v197h-176v123h176v617z" />
<glyph unicode="&#xb234;" d="M506 403h169v442h162v-571h-162v20h-169v109zM556 699v-123h-450v258h162v-135h288zM231 280v125q-58 -2 -182 -4l-19 123q392 2 593 30l11 -110q-99 -18 -241 -30v-134h-162zM746 240v-10q0 -155 169 -196l-75 -116q-124 34 -177 137q-53 -107 -168 -147 q-114 39 -168 144q-51 -98 -173 -134l-75 116q169 47 169 196v10h156v-10q0 -110 89 -173q93 64 93 173v10h160z" />
<glyph unicode="&#xb23c;" d="M458 603v-126h-379v299h162v-173h217zM485 435l10 -116q-75 -16 -155 -23v-319h-152v307q-75 -4 -149 -4l-17 129q287 0 463 26zM526 259v571h150v-886h-150v194h-136v121h136zM718 844h153v-937h-153v937z" />
<glyph unicode="&#xb258;" d="M578 580v-127h-468v335h162v-208h306zM625 391l9 -116q-80 -16 -217 -27v-315h-162v306q-72 -3 -203 -3l-18 129q387 0 591 26zM674 844h162v-937h-162v937z" />
<glyph unicode="&#xb25c;" d="M828 844v-701h-162v701h162zM572 619v-125h-450v301h162v-176h288zM312 46h536v-127h-696v285h124v98q-74 -4 -222 -6l-20 129q370 2 588 25l8 -117q-91 -13 -193 -21v-142h-125v-124z" />
<glyph unicode="&#xb260;" d="M828 844v-486h-162v486h162zM572 684v-123h-454v255h162v-132h292zM344 30h501v-121h-664v265h484v30h-485v120h87v73q-73 -4 -215 -6l-18 123q383 2 592 25l8 -110q-88 -12 -205 -22v-83h399v-262h-484v-32z" />
<glyph unicode="&#xb268;" d="M572 635v-125h-454v291h162v-166h292zM670 40v74h-330v-74h330zM430 337v-98h398v-324h-647v324h87v88q-96 -5 -216 -5l-19 126q390 2 589 29l11 -114q-89 -16 -203 -26zM666 844h162v-565h-162v565z" />
<glyph unicode="&#xb269;" d="M572 664v-125h-454v271h162v-146h292zM668 39v48h-343v-48h343zM668 207v65h160v-357h-663v357h112v91q-74 -3 -220 -5l-18 123q370 0 583 29l10 -111q-91 -16 -194 -25v-119h-113v-48h343zM666 844h162v-533h-162v533z" />
<glyph unicode="&#xb274;" d="M793 560v-127h-659v371h162v-244h497zM885 347v-129h-180v-314h-161v314h-168v-314h-161v314h-180v129h850z" />
<glyph unicode="&#xb275;" d="M792 610v-126h-655v335h162v-209h493zM526 221v83h-135v-83h135zM887 304h-200v-83h99v-317h-162v191h-508v126h114v83h-193v126h850v-126z" />
<glyph unicode="&#xb27c;" d="M789 676v-125h-655v286h162v-161h493zM526 326v58h-134v-58h134zM885 384h-198v-58h102v-263h-499v-33h524v-121h-687v265h499v32h-500v120h105v58h-195v126h849v-126z" />
<glyph unicode="&#xb284;" d="M792 633v-125h-655v318h162v-193h493zM527 250v79h-134v-79h134zM627 40v85h-332v-85h332zM886 329h-198v-79h98v-335h-650v335h96v79h-195v125h849v-125z" />
<glyph unicode="&#xb285;" d="M794 652v-125h-655v304h162v-179h493zM620 245h-109v110h-104v-110h-109v-44h322v44zM620 42v39h-322v-39h322zM886 355h-215v-81h118v-359h-660v359h118v81h-210v126h849v-126z" />
<glyph unicode="&#xb289;" d="M792 627v-126h-655v329h162v-203h493zM553 250v67h-192v-67q44 6 96 6q53 0 96 -6zM458 26q86 0 125 12.5t39 41.5t-39 41.5t-125 12.5q-87 0 -126 -12.5t-39 -41.5t39 -41.5t126 -12.5zM887 317h-173v-117q72 -45 72 -120q0 -83 -87.5 -129.5t-240.5 -46.5 q-154 0 -241.5 46.5t-87.5 129.5q0 74 71 120v117h-163v126h850v-126z" />
<glyph unicode="&#xb290;" d="M799 434v-129h-674v457h162v-328h512zM36 137h850v-130h-850v130z" />
<glyph unicode="&#xb291;" d="M795 621v-126h-660v337h165v-211h495zM126 111v126h660v-333h-165v207h-495zM36 435h851v-124h-851v124z" />
<glyph unicode="&#xb294;" d="M793 606v-127h-659v332h162v-205h497zM287 206v-155h512v-127h-674v282h162zM36 397h850v-127h-850v127z" />
<glyph unicode="&#xb298;" d="M789 676v-125h-655v286h162v-161h493zM290 72v-37h524v-121h-687v270h499v33h-500v120h663v-265h-499zM36 505h849v-126h-849v126z" />
<glyph unicode="&#xb299;" d="M792 654v-125h-655v304h162v-179h493zM277 65v-35q156 1 219 17l15 -114q-47 -12 -108 -15.5t-217 -3.5h-65v261h162v32h-163v117h319v-259h-162zM480 197v127h310v-412h-159v285h-151zM35 487h850v-126h-850v126z" />
<glyph unicode="&#xb29a;" d="M792 659v-124h-655v298h165v-174h490zM270 67v-37q112 1 169 12l9 -115q-68 -13 -271 -13h-57v259h160v31h-161v114h311v-251h-160zM609 202v-172h48v172h-48zM475 -86v404h316v-404h-316zM36 488h849v-129h-849v129z" />
<glyph unicode="&#xb2a0;" d="M792 629v-126h-655v329h162v-203h493zM296 128v-88h330v88h-330zM137 -85v338h647v-338h-647zM36 441h850v-127h-850v127z" />
<glyph unicode="&#xb2a1;" d="M793 642v-126h-656v320h162v-194h494zM624 42v54h-325v-54h325zM624 218v63h160v-366h-645v366h160v-63h325zM36 453h851v-126h-851v126z" />
<glyph unicode="&#xb2a3;" d="M782 625v-126h-645v333h162v-207h483zM544 261v-11q0 -75 67.5 -134.5t223.5 -77.5l-59 -124q-224 29 -314 156q-92 -127 -315 -156l-59 124q156 18 223.5 77.5t67.5 134.5v11h165zM36 433h850v-127h-850v127z" />
<glyph unicode="&#xb2a5;" d="M793 625v-126h-656v331h162v-205h494zM457 29q87 0 126 12.5t39 41.5t-39 41.5t-125 12.5q-87 0 -126 -12.5t-39 -41.5t39 -41.5t125 -12.5zM457 259q154 0 241.5 -46.5t87.5 -129.5t-87.5 -129.5t-240.5 -46.5q-154 0 -241.5 46.5t-87.5 129.5t87.5 129.5t240.5 46.5z M36 433h851v-127h-851v127z" />
<glyph unicode="&#xb2a6;" d="M793 622v-126h-650v322h162v-196h488zM790 144h-229q57 -94 266 -114l-57 -120q-222 21 -311 138q-91 -117 -312 -138l-58 120q210 20 267 114h-230v125h664v-125zM36 446h850v-127h-850v127z" />
<glyph unicode="&#xb2aa;" d="M789 636v-126h-651v312h162v-186h489zM400 162v-122h120v122h-120zM679 162v-122h127v-125h-692v125h127v122h-118v125h675v-125h-119zM35 463h851v-126h-851v126z" />
<glyph unicode="&#xb2ac;" d="M591 515v-127h-491v378h162v-251h329zM48 112l-15 129q390 0 592 23l9 -118q-214 -34 -586 -34zM676 844h162v-938h-162v938z" />
<glyph unicode="&#xb2b0;" d="M828 844v-682h-162v682h162zM573 608v-126h-464v316h162v-190h302zM623 425l9 -115q-212 -32 -583 -32l-15 127q398 0 589 20zM339 46h507v-127h-669v295h162v-168z" />
<glyph unicode="&#xb2b4;" d="M821 845v-478h-162v478h162zM567 673v-123h-464v263h162v-140h302zM625 521l8 -110q-220 -32 -586 -32l-14 122q400 0 592 20zM336 38h502v-123h-664v270h485v31h-486v122h648v-267h-485v-33z" />
<glyph unicode="&#xb2c8;" d="M240 756v-488q194 5 367 38l17 -133q-202 -42 -458 -42h-87v625h161zM667 844h162v-937h-162v937z" />
<glyph unicode="&#xb2c9;" d="M597 516l18 -129q-203 -39 -445 -39h-84v448h161v-316q188 5 350 36zM174 152v127h647v-376h-162v249h-485zM659 842h162v-529h-162v529z" />
<glyph unicode="&#xb2cc;" d="M821 844v-682h-162v682h162zM598 485l17 -129q-199 -41 -446 -41h-84v459h162v-327q185 5 351 38zM345 46h498v-127h-660v326h162v-199z" />
<glyph unicode="&#xb2d0;" d="M821 845v-464h-162v464h162zM597 568l18 -126q-201 -40 -446 -40h-84v397h162v-268q183 5 350 37zM348 38h493v-123h-656v274h473v36h-474v122h637v-272h-473v-37z" />
<glyph unicode="&#xb2d2;" d="M597 568l18 -126q-201 -40 -446 -40h-84v397h162v-268q183 5 350 37zM296 70v-38q107 1 178 14l10 -115q-86 -16 -285 -16h-59v261h170v35h-171v115h327v-256h-170zM638 213v-186h48v186h-48zM504 -86v412h317v-412h-317zM659 845h162v-478h-162v478z" />
<glyph unicode="&#xb2d8;" d="M597 521l18 -129q-177 -39 -445 -39h-84v438h161v-306q197 3 350 36zM345 160v-120h318v120h-318zM186 -85v370h635v-370h-635zM659 845h162v-524h-162v524z" />
<glyph unicode="&#xb2d9;" d="M597 535l18 -129q-177 -39 -445 -39h-84v434h161v-302q197 3 350 36zM661 42v63h-312v-63h312zM661 227v74h160v-386h-632v386h160v-74h312zM659 844h162v-504h-162v504z" />
<glyph unicode="&#xb2db;" d="M821 844v-616h-162v616h162zM599 504l16 -129q-199 -41 -446 -41h-84v450h162v-318q184 5 352 38zM579 280v-11q0 -83 68.5 -148.5t225.5 -85.5l-61 -126q-225 33 -316 169q-92 -136 -312 -169l-62 126q154 21 222 86.5t68 147.5v11h167z" />
<glyph unicode="&#xb2dd;" d="M818 845v-534h-162v534h162zM598 516l17 -129q-199 -41 -445 -41h-84v442h161v-310q185 5 351 38zM497 31q84 0 124 16t40 51q0 36 -40 52t-124 16q-83 0 -123 -16t-40 -52q0 -35 40 -51t123 -16zM497 293q149 0 237 -52t88 -143q0 -90 -88 -142t-237 -52t-236.5 52 t-87.5 142q0 91 87.5 143t236.5 52z" />
<glyph unicode="&#xb2e2;" d="M821 843v-491h-162v491h162zM597 547l18 -129q-177 -39 -445 -39h-84v410h161v-278q197 3 350 36zM439 191v-151h127v151h-127zM725 40h109v-125h-664v125h110v151h-101v125h645v-125h-99v-151z" />
<glyph unicode="&#xb2e4;" d="M230 631v-373q184 2 334 27l15 -132q-161 -29 -428 -29h-82v636h439v-129h-278zM904 510v-132h-126v-475h-162v942h162v-335h126z" />
<glyph unicode="&#xb2e5;" d="M559 489l15 -126q-77 -17 -167.5 -23t-259.5 -6h-81v444h424v-127h-263v-189q217 3 332 27zM145 126v127h635v-348h-162v221h-473zM897 634v-131h-117v-206h-162v547h162v-210h117z" />
<glyph unicode="&#xb2e6;" d="M559 501l15 -126q-77 -17 -167.5 -23t-259.5 -6h-81v437h420v-127h-259v-182q217 3 332 27zM122 151v127h314v-372h-160v245h-154zM474 151v127h306v-372h-160v245h-146zM897 644v-131h-117v-197h-162v528h162v-200h117z" />
<glyph unicode="&#xb2e8;" d="M559 468l15 -127q-77 -17 -167.5 -23t-259.5 -6h-81v461h424v-127h-263v-206q219 3 332 28zM325 238v-192h483v-127h-645v319h162zM780 600h117v-131h-117v-303h-162v678h162v-244z" />
<glyph unicode="&#xb2eb;" d="M559 504l15 -126q-77 -17 -167.5 -23t-259.5 -6h-81v439h420v-127h-259v-184q217 3 332 27zM318 154v-113h485v-126h-646v365h628v-126h-467zM780 646h117v-131h-117v-194h-162v523h162v-198z" />
<glyph unicode="&#xb2ec;" d="M560 548l16 -124q-82 -19 -176 -25t-257 -6h-81v405h424v-125h-263v-155q205 3 337 30zM308 73v-33h496v-125h-656v275h472v32h-473v125h633v-274h-472zM780 678h117v-129h-117v-168h-162v464h162v-167z" />
<glyph unicode="&#xb2ed;" d="M560 533l16 -124q-83 -19 -176 -25t-257 -6h-81v420h424v-126h-263v-169q205 3 337 30zM271 64v-32q157 1 220 17l14 -116q-46 -13 -105 -16t-219 -3h-66v259h162v30h-163v117h319v-256h-162zM470 195v125h310v-408h-159v283h-151zM897 659v-129h-117v-177h-162v491h162 v-185h117z" />
<glyph unicode="&#xb2ee;" d="M560 535l16 -124q-82 -19 -176 -25t-257 -6h-81v418h424v-126h-263v-167q205 3 337 30zM259 63v-31q88 1 170 14l11 -118q-90 -14 -278 -14h-59v258h158v25h-159v117h315v-251h-158zM597 198v-168h46v168h-46zM460 -86v400h320v-400h-320zM897 657v-130h-117v-179h-162 v496h162v-187h117z" />
<glyph unicode="&#xb2ef;" d="M560 533l16 -124q-82 -19 -176 -25t-257 -6h-81v420h424v-126h-263v-169q205 3 337 30zM259 62v-33q98 1 166 13l10 -114q-78 -14 -275 -14h-57v250h154v29h-155v119h311v-250h-154zM637 36v82h-40v-82h40zM637 235v85h143v-406h-326v406h143v-85h40zM897 664v-130h-117 v-180h-162v490h162v-180h117z" />
<glyph unicode="&#xb2f3;" d="M560 542l16 -124q-82 -19 -176 -25t-257 -6h-81v411h424v-126h-263v-160q205 3 337 30zM249 74v-37q104 1 182 15l14 -115q-84 -16 -289 -16h-60v259h157v32h-158v114h311v-252h-157zM629 9q35 0 35 29t-35 29q-36 0 -36 -29t36 -29zM629 173q74 0 121.5 -37.5 t47.5 -97.5t-47.5 -97.5t-121.5 -37.5t-122 37.5t-48 97.5t48 97.5t122 37.5zM708 362v-62h124v-114h-403v114h123v62h156zM780 670h117v-130h-117v-154h-162v458h162v-174z" />
<glyph unicode="&#xb2f4;" d="M559 497l15 -126q-77 -17 -167.5 -23t-259.5 -6h-81v446h420v-127h-259v-191q217 3 332 27zM317 160v-120h305v120h-305zM158 -85v370h622v-370h-622zM897 643v-130h-117v-192h-162v523h162v-201h117z" />
<glyph unicode="&#xb2f5;" d="M559 511l15 -127q-77 -17 -167.5 -23t-259.5 -6h-81v436h420v-127h-259v-181q219 3 332 28zM620 42v64h-305v-64h305zM620 228v69h160v-382h-625v382h160v-69h305zM897 651v-130h-117v-182h-162v505h162v-193h117z" />
<glyph unicode="&#xb2f7;" d="M561 486l15 -127q-78 -17 -169.5 -23t-262.5 -6h-82v451h423v-127h-262v-196q222 3 338 28zM553 272v-19q0 -35 14 -67t44.5 -63.5t88.5 -55t136 -33.5l-61 -125q-211 30 -302 157q-93 -128 -302 -157l-61 125q78 10 135.5 33.5t88 55t44.5 63.5t14 67v19h161zM780 609 h117v-130h-117v-256h-162v621h162v-235z" />
<glyph unicode="&#xb2f8;" d="M559 501l15 -126q-147 -29 -427 -29h-81v445h420v-127h-259v-190q198 3 332 27zM718 280v-16q0 -176 165 -230l-79 -115q-122 42 -169 150q-53 -115 -168 -160q-115 43 -168 157q-50 -107 -165 -147l-80 115q165 58 165 230v16h157v-16q0 -127 90 -199q92 76 92 199v16 h160zM780 647h117v-131h-117v-199h-162v527h162v-197z" />
<glyph unicode="&#xb2f9;" d="M561 502l15 -127q-78 -17 -169.5 -23t-262.5 -6h-82v439h424v-127h-263v-184q222 3 338 28zM468 31q163 0 163 68q0 69 -163 69q-162 0 -162 -69q0 -68 162 -68zM468 295q147 0 235 -52.5t88 -143.5t-88 -143.5t-235 -52.5t-234.5 52.5t-87.5 143.5t87.5 143.5 t234.5 52.5zM783 633h114v-130h-114v-192h-164v533h164v-211z" />
<glyph unicode="&#xb2fa;" d="M559 514l15 -127q-145 -29 -427 -29h-81v430h420v-127h-259v-175q207 3 332 28zM790 165h-224q20 -49 84 -87t182 -50l-57 -122q-215 24 -303 144q-87 -116 -304 -142l-57 122q225 22 267 135h-225v125h637v-125zM780 647h117v-130h-117v-188h-162v515h162v-197z" />
<glyph unicode="&#xb2fb;" d="M560 547l16 -126q-83 -19 -177.5 -25.5t-254.5 -6.5h-82v408h423v-123h-262v-157q205 3 337 30zM790 149h-229q39 -103 271 -122l-53 -119q-223 22 -310 129q-87 -107 -309 -129l-53 119q233 20 270 122h-233v121h244v82h162v-82h240v-121zM780 658h117v-130h-117v-207 h-162v523h162v-186z" />
<glyph unicode="&#xb2ff;" d="M560 566l16 -125q-82 -19 -176 -25t-257 -6h-81v394h424v-126h-263v-143q207 3 337 31zM463 14q99 0 99 28t-99 28t-99 -28t99 -28zM463 181q126 0 198 -36.5t72 -102.5t-72 -102.5t-198 -36.5t-198 36.5t-72 102.5t72 102.5t198 36.5zM544 382v-65h252v-120h-664v120 h250v65h162zM780 665h117v-131h-117v-177h-162v486h162v-178z" />
<glyph unicode="&#xb300;" d="M217 609v-370q115 3 223 21l12 -130q-133 -23 -326 -23h-68v631h345v-129h-186zM693 844h153v-937h-153v455h-59v-414h-150v881h150v-339h59v354z" />
<glyph unicode="&#xb301;" d="M448 466l12 -128q-115 -23 -330 -23h-68v466h368v-127h-209v-210q127 1 227 22zM186 118v127h654v-341h-162v214h-492zM687 844h153v-561h-153v218h-47v-217h-150v542h150v-198h47v216z" />
<glyph unicode="&#xb304;" d="M640 473v-300h-150v654h150v-226h47v243h153v-691h-153v320h-47zM448 437l12 -128q-115 -23 -330 -23h-68v479h368v-127h-209v-223q127 1 227 22zM359 46h502v-127h-664v313h162v-186z" />
<glyph unicode="&#xb308;" d="M642 532v-155h-150v448h150v-168h45v187h153v-472h-153v160h-45zM452 539l12 -125q-124 -23 -334 -23h-68v407h368v-126h-209v-155q135 3 231 22zM353 39h513v-124h-673v272h487v30h-488v123h648v-269h-487v-32z" />
<glyph unicode="&#xb310;" d="M450 489l12 -128q-116 -23 -332 -23h-68v449h372v-127h-213v-193q128 1 229 22zM343 150v-113h338v113h-338zM184 -85v357h656v-357h-656zM687 844h153v-533h-153v197h-47v-191h-150v509h150v-191h47v209z" />
<glyph unicode="&#xb311;" d="M450 504l12 -128q-116 -23 -332 -23h-68v436h372v-127h-213v-180q128 1 229 22zM680 42v59h-330v-59h330zM680 223v72h160v-380h-650v380h160v-72h330zM687 844h153v-514h-153v190h-47v-184h-150v490h150v-179h47v197z" />
<glyph unicode="&#xb313;" d="M640 501v-188h-150v515h150v-199h47v216h153v-617h-153v273h-47zM450 475l12 -128q-116 -23 -332 -23h-68v450h372v-127h-213v-194q128 1 229 22zM590 276v-21q0 -35 14.5 -68t46 -65t90 -56t138.5 -34l-64 -123q-215 30 -305 159q-92 -129 -305 -159l-64 123 q80 10 138.5 34t89.5 56t45.5 65t14.5 68v21h161z" />
<glyph unicode="&#xb314;" d="M640 519v-197h-150v504h150v-180h47v198h153v-527h-153v202h-47zM450 494l12 -128q-116 -23 -332 -23h-68v446h372v-127h-213v-190q128 1 229 22zM745 284v-28q0 -175 167 -226l-79 -116q-120 39 -172 149q-53 -115 -167 -158q-115 42 -168 155q-52 -106 -168 -146 l-78 116q166 57 166 226v28h157v-28q0 -125 89 -195q93 73 93 195v28h160z" />
<glyph unicode="&#xb315;" d="M640 503v-191h-150v514h150v-196h47v214h153v-560h-153v219h-47zM450 478l12 -128q-116 -23 -332 -23h-68v457h361v-127h-202v-201q128 1 229 22zM515 28q86 0 126.5 15t40.5 48q0 34 -40.5 49t-126.5 15q-85 0 -125.5 -15t-40.5 -49q0 -33 40.5 -48t125.5 -15zM515 278 q153 0 241 -49.5t88 -137.5t-88 -137.5t-241 -49.5q-152 0 -240 49.5t-88 137.5t88 137.5t240 49.5z" />
<glyph unicode="&#xb31c;" d="M230 631v-373q184 2 334 27l15 -132q-161 -29 -428 -29h-82v636h439v-129h-278zM891 501h-113v-139h113v-131h-113v-328h-162v943h162v-214h113v-131z" />
<glyph unicode="&#xb354;" d="M240 637v-380q178 3 302 25l15 -130q-142 -26 -399 -26h-79v638h423v-127h-262zM670 844h162v-942h-162v498h-208v129h208v315z" />
<glyph unicode="&#xb355;" d="M538 449l15 -127q-72 -17 -154 -22t-237 -5h-77v486h419v-127h-258v-231q186 3 292 26zM181 111v127h647v-333h-162v206h-485zM666 844h162v-570h-162v213h-199v127h199v230z" />
<glyph unicode="&#xb356;" d="M546 478l13 -128q-136 -23 -396 -23h-78v465h431v-127h-270v-210q180 3 300 23zM153 142v127h321v-364h-160v237h-161zM506 142v127h322v-364h-160v237h-162zM666 844h162v-538h-162v200h-199v127h199v211z" />
<glyph unicode="&#xb358;" d="M465 608h201v236h162v-682h-162v319h-201v127zM551 431l13 -127q-138 -26 -395 -26h-78v508h424v-127h-263v-253q177 3 299 25zM359 46h489v-127h-651v301h162v-174z" />
<glyph unicode="&#xb35b;" d="M467 638h199v206h162v-533h-162v200h-199v127zM537 476l19 -127q-125 -25 -388 -25h-77v479h420v-127h-259v-224q181 3 285 24zM351 41h499v-126h-660v359h644v-126h-483v-107z" />
<glyph unicode="&#xb35c;" d="M467 655h199v189h162v-477h-162v169h-199v119zM540 512l13 -122q-122 -22 -392 -22h-76v435h419v-123h-258v-189q189 1 294 21zM360 38h491v-123h-651v266h468v29h-468v122h628v-265h-468v-29z" />
<glyph unicode="&#xb35e;" d="M551 505l13 -123q-123 -22 -396 -22h-77v437h420v-123h-258v-191q193 1 298 22zM298 62v-30q103 1 175 13l13 -118q-82 -13 -284 -13h-60v257h166v26h-167v117h323v-252h-166zM638 198v-168h52v168h-52zM501 -86v400h327v-400h-327zM666 844h162v-496h-162v180h-201v119 h201v197z" />
<glyph unicode="&#xb35f;" d="M551 505l13 -123q-123 -22 -396 -22h-77v437h420v-123h-259v-191q194 1 299 22zM298 64v-31q104 1 174 14l14 -118q-81 -15 -284 -15h-60v260h166v28h-167v117h323v-255h-166zM685 36v86h-40v-86h40zM685 240v87h143v-413h-326v413h143v-87h40zM666 844h162v-482h-162 v167h-201v119h201v196z" />
<glyph unicode="&#xb364;" d="M539 473l14 -128q-123 -25 -391 -25h-77v477h419v-127h-258v-222q189 3 293 25zM352 142v-102h318v102h-318zM193 -85v352h635v-352h-635zM666 844h162v-542h-162v203h-199v127h199v212z" />
<glyph unicode="&#xb365;" d="M535 486l14 -128q-121 -25 -387 -25h-77v467h419v-127h-258v-212q179 3 289 25zM668 42v63h-318v-63h318zM668 227v61h160v-373h-638v373h160v-61h318zM666 844h162v-523h-162v194h-199v127h199v202z" />
<glyph unicode="&#xb367;" d="M466 624h200v220h162v-621h-162v274h-200v127zM538 462l15 -127q-72 -17 -154 -22t-237 -5h-77v483h415v-127h-254v-228q186 3 292 26zM876 33l-59 -125h-1q-217 29 -310 162q-95 -134 -308 -162l-60 125q146 19 216 82.5t70 128.5v21h166v-21q0 -32 14.5 -62.5 t45.5 -61.5t89 -54t137 -33z" />
<glyph unicode="&#xb369;" d="M467 617h199v227h162v-556h-162v202h-199v127zM538 459l15 -128q-138 -25 -391 -25h-77v474h419v-127h-258v-219q173 3 292 25zM505 26q85 0 125 15t40 49q0 33 -40 48t-125 15q-84 0 -124 -15t-40 -48q0 -34 39.5 -49t124.5 -15zM505 275q152 0 239.5 -49t87.5 -136 q0 -88 -87.5 -137t-239.5 -49q-151 0 -238.5 49t-87.5 137q0 87 87.5 136t238.5 49z" />
<glyph unicode="&#xb36b;" d="M473 658h193v186h162v-533h-162v228h-193v119zM536 516l13 -122q-120 -22 -388 -22h-76v433h419v-123h-258v-187q186 1 290 21zM833 139h-245q20 -41 88.5 -72.5t193.5 -40.5l-49 -118q-230 17 -324 124q-92 -107 -325 -124l-49 118q128 8 196 39.5t87 73.5h-246v121h254 v77h165v-77h254v-121z" />
<glyph unicode="&#xb36e;" d="M467 645h199v199h162v-509h-162v183h-199v127zM546 493l14 -128q-123 -25 -392 -25h-77v461h424v-127h-263v-206q190 3 294 25zM446 170v-130h122v130h-122zM727 40h120v-125h-678v125h118v130h-108v125h656v-125h-108v-130z" />
<glyph unicode="&#xb370;" d="M217 616v-379q131 3 225 22l12 -131q-126 -23 -328 -23h-68v638h361v-127h-202zM497 510v319h150v-886h-150v438h-142v129h142zM694 844h153v-937h-153v937z" />
<glyph unicode="&#xb371;" d="M385 606h118v220h150v-551h-150v204h-118v127zM451 440l14 -124q-60 -10 -122.5 -12.5t-204.5 -2.5h-67v476h368v-125h-209v-226q146 2 221 14zM194 103v127h654v-325h-162v198h-492zM695 844h153v-575h-153v575z" />
<glyph unicode="&#xb374;" d="M848 844v-691h-153v691h153zM385 601h118v225h150v-653h-150v301h-118v127zM451 424l14 -125q-126 -23 -327 -23h-67v505h368v-125h-209v-254q117 3 221 22zM367 48h502v-129h-664v307h162v-178z" />
<glyph unicode="&#xb378;" d="M848 844v-486h-153v486h153zM388 653h117v176h150v-468h-150v171h-117v121zM453 507l10 -125q-95 -15 -325 -15h-67v437h368v-125h-209v-187q135 1 223 15zM353 38h518v-123h-678v266h495v29h-495v122h655v-266h-495v-28z" />
<glyph unicode="&#xb380;" d="M391 630h112v196h150v-519h-150v196h-112v127zM453 466l10 -125q-60 -10 -122 -12.5t-203 -2.5h-67v467h368v-125h-209v-217q148 2 223 15zM366 146v-106h323v106h-323zM207 -85v356h641v-356h-641zM695 844h153v-542h-153v542z" />
<glyph unicode="&#xb381;" d="M385 637h118v189h150v-495h-150v179h-118v127zM453 480l10 -125q-60 -10 -122 -12.5t-203 -2.5h-67v454h368v-125h-209v-204q148 2 223 15zM688 41v61h-324v-61h324zM688 224v67h160v-376h-644v376h160v-67h324zM695 844h153v-519h-153v519z" />
<glyph unicode="&#xb383;" d="M848 844v-621h-153v621h153zM384 619h119v209h150v-528h-150v192h-119v127zM453 448l10 -125q-110 -15 -325 -15h-67v482h365v-125h-206v-232q128 2 223 15zM600 265v-21q0 -33 14.5 -64.5t45.5 -61.5t89.5 -53t138.5 -32l-58 -125q-218 28 -310 155q-94 -127 -311 -155 l-58 125q153 18 220.5 78t67.5 133v21h161z" />
<glyph unicode="&#xb384;" d="M848 843v-538h-153v538h153zM391 625h112v201h150v-514h-150v186h-112v127zM453 464l10 -125q-111 -15 -325 -15h-67v461h368v-125h-209v-211q127 2 223 15zM745 272v-21q0 -175 167 -225l-79 -117q-120 41 -172 149q-54 -115 -167 -157q-115 42 -168 154 q-52 -105 -168 -146l-78 117q166 56 166 225v21h157v-21q0 -124 89 -195q93 73 93 195v21h160z" />
<glyph unicode="&#xb385;" d="M848 844v-560h-153v560h153zM388 616h115v210h150v-514h-150v177h-115v127zM453 455l14 -124q-100 -20 -329 -20h-67v468h368v-125h-209v-218q139 3 223 19zM520 27q169 0 169 63q0 64 -169 64q-170 0 -170 -64q0 -63 170 -63zM520 277q151 0 241.5 -50.5t90.5 -136.5 t-90.5 -136.5t-241.5 -50.5q-152 0 -242.5 50.5t-90.5 136.5t90.5 136.5t242.5 50.5z" />
<glyph unicode="&#xb38c;" d="M247 648v-424q179 3 303 25l15 -130q-142 -26 -400 -26h-79v682h432v-127h-271zM670 845h162v-943h-162v379h-190v132h190v64h-190v132h190v236z" />
<glyph unicode="&#xb390;" d="M666 153v232h-155v123h155v56h-155v123h155v157h162v-691h-162zM505 392l14 -125q-124 -23 -357 -23h-71v545h385v-127h-223v-292q141 1 252 22zM359 46h489v-127h-651v277h162v-150z" />
<glyph unicode="&#xb394;" d="M666 362v79h-145v121h145v48h-145v121h145v113h162v-482h-162zM488 509l13 -121q-106 -21 -346 -21h-70v441h384v-123h-223v-195q149 3 242 19zM360 31h491v-122h-651v268h468v33h-469v121h629v-267h-468v-33z" />
<glyph unicode="&#xb3a0;" d="M666 307v95h-148v123h148v54h-148v123h148v142h162v-537h-162zM486 464l15 -125q-120 -24 -346 -24h-70v474h384v-127h-223v-221q137 3 240 23zM747 274v-10q0 -178 167 -229l-80 -116q-120 40 -170 150q-55 -116 -168 -160q-115 43 -168 157q-52 -107 -167 -147l-80 116 q167 57 167 229v11h157v-11q0 -128 90 -199q92 76 92 199v11z" />
<glyph unicode="&#xb3a1;" d="M666 279v114h-139v123h139v68h-139v123h139v137h162v-565h-162zM492 452l15 -125q-122 -23 -346 -23h-70v485h385v-127h-224v-232q133 1 240 22zM505 24q165 0 165 61q0 62 -164 62q-85 0 -125 -14.5t-40 -47.5q0 -61 164 -61zM506 269q151 0 238.5 -49t87.5 -135 t-87.5 -134t-238.5 -48q-152 0 -239.5 48t-87.5 134t87.5 135t239.5 49z" />
<glyph unicode="&#xb3a8;" d="M217 628v-399q123 3 216 21l14 -130q-117 -23 -322 -23h-67v658h357v-127h-198zM497 593v236h150v-886h-150v338h-122v127h122v58h-122v127h122zM694 844h153v-937h-153v937z" />
<glyph unicode="&#xb3ac;" d="M848 844v-696h-153v696h153zM503 490v62h-85v123h85v151h150v-658h-150v199h-84v123h84zM399 398l13 -124q-109 -20 -281 -20h-60v529h310v-125h-151v-278q90 3 169 18zM367 48h502v-129h-664v287h162v-158z" />
<glyph unicode="&#xb3c4;" d="M541 135h345v-130h-850v130h343v173h-249v476h663v-127h-501v-222h507v-127h-258v-173z" />
<glyph unicode="&#xb3c5;" d="M128 96v126h659v-317h-162v191h-497zM541 396h344v-126h-850v126h344v66h-243v344h651v-126h-490v-92h498v-126h-254v-66z" />
<glyph unicode="&#xb3c8;" d="M294 197v-151h506v-127h-668v278h162zM541 374h345v-127h-850v127h343v75h-243v351h651v-127h-490v-97h498v-127h-254v-75z" />
<glyph unicode="&#xb3cb;" d="M294 121v-80h503v-126h-664v332h655v-126h-494zM541 420h346v-127h-851v127h343v56h-243v332h652v-127h-491v-78h499v-127h-255v-56z" />
<glyph unicode="&#xb3cc;" d="M290 62v-33h518v-120h-678v263h495v30h-496v118h656v-258h-495zM541 479h344v-125h-851v125h345v43h-243v293h644v-125h-483v-43h490v-125h-246v-43z" />
<glyph unicode="&#xb3ce;" d="M271 57v-32q114 1 173 12l8 -115q-67 -13 -273 -13h-58v253h160v29h-161v114h311v-248h-160zM608 192v-169h48v169h-48zM474 -91v396h316v-396h-316zM541 471h344v-126h-850v126h344v47h-238v294h643v-125h-482v-44h489v-125h-250v-47z" />
<glyph unicode="&#xb3d0;" d="M727 314v-66q0 -164 138 -226l-87 -111q-88 42 -130 135q-44 -93 -129 -135l-69 87l6 -71q-68 -13 -277 -13h-58v249h165v29h-166v112h319v-245h-165v-32q115 1 173 13l1 -9q122 70 122 217v66h157zM541 470h345v-126h-851v126h344v47h-238v295h644v-125h-483v-45h490 v-125h-251v-47z" />
<glyph unicode="&#xb3d4;" d="M290 121v-81h338v81h-338zM131 -85v331h656v-331h-656zM539 422h347v-127h-850v127h341v60h-241v327h651v-127h-490v-74h498v-126h-256v-60z" />
<glyph unicode="&#xb3d5;" d="M625 42v55h-335v-55h335zM625 219v59h161v-363h-656v363h160v-59h335zM539 438h347v-127h-850v127h341v59h-241v318h651v-127h-490v-65h498v-126h-256v-59z" />
<glyph unicode="&#xb3d7;" d="M544 247v-11q0 -72 67.5 -129.5t223.5 -75.5l-58 -123q-225 27 -315 151q-92 -124 -316 -151l-58 123q157 18 224 75.5t67 129.5v11h165zM543 408h343v-127h-850v127h345v67h-245v334h655v-127h-494v-81h503v-126h-257v-67z" />
<glyph unicode="&#xb3d9;" d="M457 24q87 0 126 12t39 41t-39 41.5t-126 12.5q-86 0 -125 -12.5t-39 -41.5t38.5 -41t125.5 -12zM457 253q154 0 241.5 -46.5t87.5 -129.5t-87.5 -129t-241.5 -46q-153 0 -240.5 46t-87.5 129t87.5 129.5t240.5 46.5zM542 414h345v-127h-851v127h344v61h-244v330h652 v-126h-491v-78h495v-126h-250v-61z" />
<glyph unicode="&#xb3db;" d="M782 115h-222q56 -77 264 -91l-50 -117q-223 16 -314 117q-91 -101 -314 -117l-50 117q206 14 264 91h-223v123h242v62h162v-62h241v-123zM541 456h345v-126h-850v126h343v54h-235v301h639v-126h-478v-49h484v-126h-248v-54z" />
<glyph unicode="&#xb3dd;" d="M296 56v-32h513v-115h-674v400h656v-114h-495v-30h480v-109h-480zM540 471h347v-126h-851v126h342v48h-237v295h652v-126h-491v-44h499v-125h-261v-48z" />
<glyph unicode="&#xb3e0;" d="M394 351v-137q93 4 190 17l12 -116q-90 -18 -200.5 -26.5t-177.5 -9.5t-174 0l-19 129q133 0 207 1v142h-154v412h458v-127h-297v-158h307v-127h-152zM897 483v-132h-110v-444h-162v937h162v-361h110z" />
<glyph unicode="&#xb3e4;" d="M582 397l12 -113q-199 -40 -556 -42l-19 126q138 0 216 3v74h-152v337h451v-127h-285v-84h288v-126h-140v-67q102 6 185 19zM306 194v-148h502v-127h-664v275h162zM789 558h108v-131h-108v-283h-162v700h162v-286z" />
<glyph unicode="&#xb3e8;" d="M598 485l8 -106q-206 -29 -573 -29l-13 118q141 0 215 1v47h-141v291h451v-123h-290v-45h293v-123h-151v-44q114 5 201 13zM299 61v-32h523v-120h-683v263h499v28h-500v119h660v-258h-499zM798 661h99v-130h-99v-182h-162v495h162v-183z" />
<glyph unicode="&#xb3fc;" d="M344 350v-135q83 5 140 13l8 -117q-166 -33 -451 -33l-18 129q106 0 168 2v141h-134v414h404v-127h-245v-160h254v-127h-126zM713 844h153v-938h-153v446h-45v-408h-150v887h150v-351h45v364z" />
<glyph unicode="&#xb410;" d="M663 483v-205h-150v546h150v-213h44v233h153v-570h-153v209h-44zM480 424l9 -110q-148 -30 -441 -33l-16 122q107 0 170 2v63h-121v325h388v-126h-232v-73h233v-126h-118v-56q69 5 128 12zM733 242v-21q0 -150 169 -192l-73 -116q-124 33 -179 136q-52 -108 -167 -145 q-116 37 -169 142q-54 -99 -174 -133l-74 116q88 23 128.5 74.5t40.5 117.5v21h157v-21q0 -108 89 -169q93 64 93 169v21h159z" />
<glyph unicode="&#xb418;" d="M423 350v-138q102 4 198 15l11 -117q-213 -34 -575 -32l-18 129q145 0 222 1v142h-168v414h491v-127h-329v-160h335v-127h-167zM667 845h162v-942h-162v942z" />
<glyph unicode="&#xb41c;" d="M825 845v-709h-162v709h162zM617 380l12 -114q-215 -31 -570 -31l-19 126q146 0 224 1v78h-150v349h459v-127h-298v-95h303v-127h-152v-73q107 5 191 13zM336 46h512v-127h-674v269h162v-142z" />
<glyph unicode="&#xb420;" d="M828 844v-486h-162v486h162zM627 493l10 -107q-210 -30 -578 -30l-17 120q147 0 224 1v44h-147v287h451v-121h-285v-45h293v-121h-150v-41q114 5 199 13zM341 33h504v-123h-664v268h487v29h-488v122h648v-266h-487v-30z" />
<glyph unicode="&#xb428;" d="M623 435l11 -110q-207 -37 -575 -39l-16 122q142 0 220 2v69h-148v319h455v-127h-294v-66h298v-126h-149v-63q108 6 198 19zM341 114v-74h330v74h-330zM182 -85v324h647v-324h-647zM667 844h162v-570h-162v570z" />
<glyph unicode="&#xb429;" d="M617 451l11 -110q-206 -37 -572 -39l-19 122q145 0 225 2v58h-149v319h455v-127h-294v-66h298v-126h-148v-51q101 6 193 18zM667 40v48h-327v-48h327zM667 209v54h160v-348h-647v348h160v-54h327zM665 844h162v-546h-162v546z" />
<glyph unicode="&#xb42b;" d="M828 844v-658h-162v658h162zM619 419l12 -113q-218 -42 -575 -42l-17 125q145 0 227 3v74h-153v327h455v-127h-294v-74h298v-126h-144v-67q113 9 191 20zM578 232v-11q0 -66 66.5 -119.5t219.5 -69.5l-57 -123q-221 24 -312 143q-91 -119 -312 -143l-57 123 q153 16 219.5 69.5t66.5 119.5v11h166z" />
<glyph unicode="&#xb434;" d="M399 311v-171h130v171h-130zM690 140h195v-129h-850v129h203v171h-108v469h662v-129h-500v-213h506v-127h-108v-171z" />
<glyph unicode="&#xb450;" d="M793 521v-127h-656v403h648v-127h-482v-149h490zM886 318v-129h-348v-283h-162v283h-341v129h851z" />
<glyph unicode="&#xb451;" d="M795 598v-126h-659v335h651v-126h-490v-83h498zM886 288h-345v-71h246v-313h-162v187h-497v126h251v71h-343v127h850v-127z" />
<glyph unicode="&#xb454;" d="M795 569v-127h-659v363h651v-127h-490v-109h498zM293 193v-147h506v-127h-668v274h162zM37 387h849v-127h-328v-137h-162v137h-359v127z" />
<glyph unicode="&#xb458;" d="M787 647v-125h-651v293h644v-125h-483v-43h490zM885 362h-344v-42h244v-258h-495v-33h518v-120h-678v263h495v30h-497v118h251v42h-345v125h851v-125z" />
<glyph unicode="&#xb460;" d="M795 608v-126h-659v327h651v-127h-490v-74h498zM628 40v81h-338v-81h338zM886 308h-345v-62h246v-331h-656v331h248v62h-342v127h849v-127z" />
<glyph unicode="&#xb461;" d="M795 625v-126h-659v316h651v-127h-490v-63h498zM625 42v45h-335v-45h335zM625 209v72h161v-366h-656v366h160v-72h335zM37 451h849v-127h-345v-85h-162v85h-342v127z" />
<glyph unicode="&#xb463;" d="M797 614v-126h-660v325h652v-127h-491v-72h499zM541 211v-11q0 -22 7.5 -42.5t28 -42t51.5 -38t82.5 -29.5t118.5 -18l-54 -123q-227 23 -318 133q-89 -110 -318 -133l-54 123q158 12 223.5 60t65.5 110v11h167zM35 441h851v-127h-346v-73h-162v73h-343v127z" />
<glyph unicode="&#xb465;" d="M792 603v-126h-656v328h652v-126h-491v-76h495zM622 78q0 29 -39 41.5t-125 12.5q-87 0 -126 -12.5t-39 -41.5t39 -41t126 -12q86 0 125 12t39 41zM887 301h-346v-51q117 -12 181 -56.5t64 -115.5q0 -83 -87.5 -129t-240.5 -46q-154 0 -241.5 46t-87.5 129 q0 72 65.5 116.5t184.5 55.5v51h-343v127h851v-127z" />
<glyph unicode="&#xb46c;" d="M574 568v-127h-468v359h459v-127h-298v-105h307zM630 395l9 -115q-87 -12 -230 -22v-325h-162v319q-69 -2 -200 -2l-17 127q405 0 600 18zM685 844h162v-937h-162v187h-177v123h177v627z" />
<glyph unicode="&#xb480;" d="M506 387h169v459h162v-580h-162v17h-169v104zM552 668v-121h-431v282h427v-121h-265v-40h269zM231 274v119q-64 -2 -182 -2l-19 117q386 0 587 22l9 -105q-120 -19 -233 -26v-125h-162zM746 237v-11q0 -66 39.5 -117t126.5 -75l-75 -117q-122 37 -173 138 q-54 -107 -169 -146q-115 37 -167 142q-52 -97 -171 -134l-75 117q87 24 126.5 75t39.5 117v11h156v-11q0 -108 89 -169q93 63 93 169v11h160z" />
<glyph unicode="&#xb488;" d="M459 576v-127h-379v331h376v-127h-220v-77h223zM483 412l11 -117q-64 -11 -152 -19v-299h-153v289q-75 -4 -152 -4l-17 129q291 0 463 21zM525 238v594h150v-891h-150v176h-133v121h133zM718 844h153v-938h-153v938z" />
<glyph unicode="&#xb49d;" d="M860 844v-612h-153v612h153zM411 384h110v444h150v-571h-150v23h-110v104zM454 656l1 -117h-366v274h365v-117h-210v-40h210zM195 241v144q-76 -4 -153 -4l-14 118q289 0 454 25l10 -107q-81 -15 -144 -21v-155h-153zM515 20q102 0 144.5 10.5t42.5 35.5t-42 35t-144 10 t-144 -10t-42 -35t42.5 -35.5t142.5 -10.5zM516 229q168 0 260 -42t92 -121q0 -80 -92 -122t-260 -42t-260 42t-92 122q0 79 92 121t260 42z" />
<glyph unicode="&#xb4a4;" d="M576 560v-127h-464v363h455v-127h-294v-109h303zM626 373l9 -116q-92 -17 -213 -27v-297h-162v289q-37 -1 -208 -1l-18 130q412 0 592 22zM669 844h162v-937h-162v937z" />
<glyph unicode="&#xb4a8;" d="M828 844v-706h-162v706h162zM572 592v-127h-450v333h443v-127h-282v-79h289zM305 46h541v-127h-702v274h119v91q-97 -4 -206 -4l-19 127q370 0 589 25l8 -114q-97 -15 -211 -25v-131h-119v-116z" />
<glyph unicode="&#xb4ac;" d="M828 846v-497h-162v497h162zM563 653v-121h-435v292h431v-121h-269v-50h273zM341 29h509v-120h-669v261h487v30h-488v118h79v58q-72 -2 -204 -2l-17 118q398 0 591 20l10 -105q-115 -17 -218 -23v-66h407v-258h-487v-31z" />
<glyph unicode="&#xb4b5;" d="M559 638v-126h-431v307h427v-127h-266v-54h270zM667 36v44h-350v-44h350zM667 198v55h161v-339h-670v339h110v94q-111 -3 -212 -3l-18 123q387 0 589 18l9 -110q-110 -14 -207 -20v-109h-112v-48h350zM666 844h162v-556h-162v556z" />
<glyph unicode="&#xb4b7;" d="M828 844v-663h-162v663h162zM565 614v-126h-445v312h443v-127h-282v-59h284zM236 180v132q-94 -3 -180 -3l-20 127q378 0 590 21l8 -115q-104 -14 -237 -23v-139h-161zM601 246v-31q0 -65 66.5 -117.5t220.5 -68.5l-58 -121q-222 23 -312 142q-90 -119 -311 -142l-58 121 q153 16 219.5 68.5t66.5 117.5v31h166z" />
<glyph unicode="&#xb4b9;" d="M829 844v-578h-162v578h162zM563 611v-126h-435v312h431v-127h-270v-59h274zM502 23q170 0 170 54q0 55 -170 55q-169 0 -169 -55q0 -54 169 -54zM422 319v-70q33 4 80 4q153 0 243 -47t90 -129q0 -81 -90 -128t-243 -47q-152 0 -242 47t-90 128q0 82 91 130v104 q-107 -3 -205 -3l-19 127q378 0 589 21l8 -115q-100 -14 -212 -22z" />
<glyph unicode="&#xb4c0;" d="M792 526v-127h-655v403h647v-127h-481v-149h489zM885 323v-129h-177v-289h-161v289h-168v-289h-161v289h-183v129h850z" />
<glyph unicode="&#xb4c4;" d="M795 578v-127h-659v354h651v-127h-490v-100h498zM289 196v-151h516v-126h-677v277h161zM37 397h849v-127h-190v-146h-159v146h-55v-145h-159v145h-286v127z" />
<glyph unicode="&#xb4c8;" d="M787 651v-125h-651v292h644v-125h-483v-42h490zM528 320v45h-128v-45h128zM884 365h-195v-45h96v-258h-495v-33h518v-120h-678v263h495v30h-497v118h111v45h-205v125h850v-125z" />
<glyph unicode="&#xb4d0;" d="M795 612l1 -126h-660v325h652v-127h-491v-72h498zM524 246v66h-119v-66h119zM628 40v81h-338v-81h338zM886 312h-201v-66h102v-331h-656v331h113v66h-207v127h849v-127z" />
<glyph unicode="&#xb4d5;" d="M791 606v-126h-655v327h651v-126h-490v-75h494zM544 250v51h-165v-51q32 4 78 4q51 0 87 -4zM458 25q86 0 125 12t39 41t-39 41.5t-125 12.5q-87 0 -126 -12.5t-39 -41.5t39 -41t126 -12zM887 301h-182v-97q79 -46 81 -126q0 -83 -87.5 -129t-240.5 -46q-154 0 -241.5 46 t-87.5 129q0 85 89 131v92h-181v127h850v-127z" />
<glyph unicode="&#xb4dc;" d="M799 420v-127h-669v479h663v-129h-502v-223h508zM36 141h850v-130h-850v130z" />
<glyph unicode="&#xb4dd;" d="M795 593v-127h-659v349h651v-127h-490v-95h498zM128 92v127h659v-313h-162v186h-497zM36 407h850v-127h-850v127z" />
<glyph unicode="&#xb4e0;" d="M796 575l-1 -127h-659v365h651v-127h-490v-111h499zM294 203v-157h507v-127h-669v284h162zM37 385h850v-127h-850v127z" />
<glyph unicode="&#xb4e3;" d="M795 606v-127h-659v344h651v-127h-490v-90h498zM294 131v-89h503v-127h-664v342h655v-126h-494zM37 433h850v-127h-850v127z" />
<glyph unicode="&#xb4e4;" d="M787 657v-125h-651v300h644v-126h-483v-49h490zM290 68v-35h518v-122h-678v269h495v32h-496v120h656v-264h-495zM37 495h850v-126h-850v126z" />
<glyph unicode="&#xb4e6;" d="M791 645v-125h-650v311h643v-126h-480v-60h487zM271 61v-36q114 1 173 12l8 -115q-67 -13 -273 -13h-58v257h160v31h-161v114h311v-250h-160zM608 198v-175h48v175h-48zM474 -91v402h316v-402h-316zM36 480h849v-126h-849v126z" />
<glyph unicode="&#xb4ec;" d="M795 607v-126h-659v341h651v-127h-490v-88h498zM290 123v-82h338v82h-338zM131 -84v332h656v-332h-656zM37 431h849v-127h-849v127z" />
<glyph unicode="&#xb4ed;" d="M795 621v-126h-659v328h651v-127h-490v-75h498zM625 43v56h-335v-56h335zM625 221v59h161v-364h-656v364h160v-59h335zM37 447h849v-127h-849v127z" />
<glyph unicode="&#xb4ef;" d="M800 601v-126h-664v342h655v-127h-494v-89h503zM544 249v-11q0 -72 67.5 -129.5t223.5 -75.5l-58 -123q-225 27 -315 151q-92 -124 -316 -151l-58 123q157 18 224 75.5t67 129.5v11h165zM36 419h850v-127h-850v127z" />
<glyph unicode="&#xb4f1;" d="M792 602v-126h-656v349h652v-127h-491v-96h495zM457 25q87 0 126 12t39 41t-39 41.5t-125 12.5q-87 0 -126 -12.5t-39 -41.5t39 -41t125 -12zM457 254q154 0 241.5 -46.5t87.5 -129.5t-87.5 -129t-240.5 -46q-154 0 -241.5 46t-87.5 129t87.5 129.5t240.5 46.5zM36 424 h851v-130h-851v130z" />
<glyph unicode="&#xb4f8;" d="M582 488v-127h-478v398h471v-127h-310v-144h317zM52 114l-19 129q410 0 595 20l8 -118q-218 -33 -584 -31zM667 845h162v-943h-162v943z" />
<glyph unicode="&#xb514;" d="M250 635v-381q228 1 353 26l14 -133q-84 -16 -178.5 -21t-265.5 -5h-84v643h459v-129h-298zM658 844h162v-943h-162v943z" />
<glyph unicode="&#xb515;" d="M602 472l13 -127q-80 -16 -172.5 -20.5t-272.5 -4.5h-84v451h447v-127h-286v-196q232 1 355 24zM174 122v127h647v-345h-162v218h-485zM659 842h162v-553h-162v553z" />
<glyph unicode="&#xb518;" d="M821 844v-682h-162v682h162zM545 438l13 -127q-137 -26 -394 -26h-78v501h423v-127h-262v-246q178 3 298 25zM345 46h498v-127h-660v302h162v-175z" />
<glyph unicode="&#xb51b;" d="M821 844v-523h-162v523h162zM598 504l15 -127q-82 -17 -176.5 -22.5t-266.5 -5.5h-84v436h447v-127h-286v-181q224 1 351 27zM350 42h490v-127h-651v366h636v-127h-475v-112z" />
<glyph unicode="&#xb51c;" d="M821 843v-467h-162v467h162zM595 551l16 -121q-85 -18 -181 -24t-262 -6h-83v395h444v-123h-282v-149q222 3 348 28zM345 33h496v-123h-656v275h476v36h-477v122h637v-271h-476v-39z" />
<glyph unicode="&#xb524;" d="M598 496l15 -127q-82 -17 -176.5 -22.5t-266.5 -5.5h-84v438h447v-127h-286v-183q224 1 351 27zM345 146v-106h318v106h-318zM186 -85v356h635v-356h-635zM659 844h162v-533h-162v533z" />
<glyph unicode="&#xb525;" d="M598 507l15 -127q-82 -17 -176.5 -22.5t-266.5 -5.5h-84v437h447v-127h-286v-182q224 1 351 27zM661 42v62h-315v-62h315zM661 226v69h160v-380h-635v380h160v-69h315zM659 844h162v-509h-162v509z" />
<glyph unicode="&#xb527;" d="M821 845v-636h-162v636h162zM597 472l12 -127q-142 -28 -440 -28h-83v457h439v-127h-278v-202q217 1 350 27zM579 270v-11q0 -78 67 -142t217 -85l-61 -125q-216 33 -306 168q-91 -136 -307 -168l-61 125q150 21 217 85t67 142v11h167z" />
<glyph unicode="&#xb528;" d="M821 844v-532h-162v532h162zM600 494l15 -126q-150 -30 -445 -30h-84v443h447v-127h-286v-188q222 3 353 28zM734 276v-20q0 -173 166 -222l-78 -116q-121 40 -172 147q-54 -114 -167 -157q-115 42 -168 154q-51 -104 -168 -144l-79 116q167 54 167 222v20h157v-20 q0 -123 89 -192q93 74 93 192v20h160z" />
<glyph unicode="&#xb529;" d="M821 845v-552h-162v552h162zM598 485l15 -128q-82 -17 -176.5 -22.5t-266.5 -5.5h-84v447h447v-127h-286v-192q226 1 351 28zM500 26q164 0 164 65q0 34 -39.5 49t-124.5 15q-84 0 -123.5 -15t-39.5 -49q0 -65 163 -65zM500 279q150 0 237.5 -49.5t87.5 -138.5 t-87.5 -138.5t-237.5 -49.5t-237 49.5t-87 138.5t87 138.5t237 49.5z" />
<glyph unicode="&#xb52a;" d="M821 844v-527h-162v527h162zM599 507l12 -127q-145 -26 -442 -26h-83v429h447v-127h-286v-174q219 2 352 25zM831 156h-228q48 -106 267 -126l-55 -121q-220 24 -307 139q-89 -115 -305 -139l-55 121q219 21 266 126h-219v126h636v-126z" />
<glyph unicode="&#xb530;" d="M208 625v-366q44 3 87 10l11 -130q-74 -13 -206 -13h-51v626h243v-127h-84zM497 625v-367q61 3 98 13l12 -130q-37 -10 -78 -12.5t-139 -2.5h-52v626h255v-127h-96zM896 503v-132h-97v-467h-162v942h162v-343h97z" />
<glyph unicode="&#xb531;" d="M601 466l12 -130q-37 -10 -79 -12.5t-143 -2.5h-53v449h251v-127h-99v-190q63 1 111 13zM302 465l11 -130q-74 -14 -212 -14h-51v449h247v-127h-95v-189q43 1 100 11zM141 123v126h663v-345h-163v219h-500zM896 617v-131h-92v-202h-162v560h162v-227h92z" />
<glyph unicode="&#xb534;" d="M601 443l12 -130q-37 -10 -79 -12.5t-143 -2.5h-53v467h251v-127h-99v-208q63 1 111 13zM302 440l11 -129q-69 -13 -212 -13h-51v467h247v-127h-95v-209q43 1 100 11zM313 226v-180h520v-127h-682v307h162zM804 592h92v-131h-92v-300h-162v682h162v-251z" />
<glyph unicode="&#xb538;" d="M602 541l11 -125q-37 -10 -77 -12t-146 -2h-52v389h251v-125h-98v-138q61 1 111 13zM302 540l11 -125q-70 -13 -213 -13h-50v389h247v-125h-94v-137q44 1 99 11zM309 73v-35h522v-123h-682v272h495v34h-496v122h656v-270h-495zM804 670h92v-129h-92v-164h-162v467h162 v-174z" />
<glyph unicode="&#xb540;" d="M601 484l12 -130q-37 -10 -79 -12.5t-143 -2.5h-53v445h251v-126h-98v-187q62 1 110 13zM302 483l11 -130q-74 -14 -212 -14h-51v445h247v-126h-94v-186q44 1 99 11zM312 146v-106h333v106h-333zM153 -85v356h651v-356h-651zM896 642v-131h-92v-200h-162v533h162v-202h92 z" />
<glyph unicode="&#xb541;" d="M601 500l12 -130q-37 -10 -79 -12.5t-143 -2.5h-53v442h251v-126h-98v-184q62 1 110 13zM302 499l11 -130q-74 -14 -212 -14h-51v442h247v-126h-94v-183q44 1 99 11zM644 42v62h-324v-62h324zM644 226v71h160v-382h-644v382h160v-71h324zM896 664v-131h-92v-199h-162v509 h162v-179h92z" />
<glyph unicode="&#xb543;" d="M601 469l12 -130q-37 -10 -79 -12.5t-143 -2.5h-53v450h251v-126h-98v-192q62 1 110 13zM302 468l11 -130q-74 -14 -212 -14h-51v450h247v-126h-94v-191q44 1 99 11zM565 272v-13q0 -78 66.5 -142t215.5 -84l-62 -126q-212 32 -303 166q-92 -134 -305 -166l-61 126 q78 10 135 34.5t88 57t45 66t14 68.5v13h167zM804 609h92v-131h-92v-266h-162v632h162v-235z" />
<glyph unicode="&#xb544;" d="M601 484l12 -130q-37 -10 -79 -12.5t-143 -2.5h-53v445h251v-126h-98v-187q62 1 110 13zM302 483l11 -130q-74 -14 -212 -14h-51v445h247v-126h-94v-186q44 1 99 11zM718 280v-16q0 -178 164 -230l-79 -115q-120 42 -169 150q-51 -115 -168 -160q-116 43 -167 157 q-51 -108 -166 -147l-79 115q165 59 165 230v16h156v-16q0 -127 91 -199q92 76 92 199v16h160zM804 632h92v-131h-92v-189h-162v532h162v-212z" />
<glyph unicode="&#xb545;" d="M601 477l12 -130q-37 -10 -79 -12.5t-143 -2.5h-53v447h251v-126h-98v-189q62 1 110 13zM302 476l11 -130q-74 -14 -212 -14h-51v447h247v-126h-94v-188q44 1 99 11zM477 28q88 0 129 14.5t41 47.5q0 62 -170 62q-169 0 -169 -62q0 -33 41 -47.5t128 -14.5zM477 275 q155 0 244 -49t89 -136q0 -88 -89 -137t-244 -49q-154 0 -243 49t-89 137q0 87 89 136t243 49zM804 629h92v-131h-92v-211h-162v556h162v-214z" />
<glyph unicode="&#xb54b;" d="M602 566l11 -125q-37 -10 -77 -12t-146 -2h-52v360h251v-125h-98v-109q61 1 111 13zM302 565l11 -125q-70 -13 -213 -13h-50v360h247v-125h-94v-108q44 1 99 11zM472 15q59 0 85.5 6t26.5 22q0 17 -26.5 23t-85.5 6q-60 0 -86.5 -6t-26.5 -23q0 -16 26.5 -22t86.5 -6z M472 184q128 0 201.5 -37.5t73.5 -103.5t-74 -103t-201 -37q-128 0 -202 37t-74 103t74 103.5t202 37.5zM554 389v-66h260v-119h-683v119h261v66h162zM804 666h92v-129h-92v-175h-162v482h162v-178z" />
<glyph unicode="&#xb54c;" d="M189 608v-350q30 4 49 8l11 -130q-67 -14 -160 -14h-44v613h196v-127h-52zM416 608v-351q42 4 67 9l10 -130q-72 -14 -175 -14h-46v613h204v-127h-60zM709 844h150v-938h-150v457h-45v-417h-147v886h147v-341h45v353z" />
<glyph unicode="&#xb54d;" d="M486 447l11 -128q-73 -13 -173 -13h-45v466h204v-126h-60v-208q26 3 63 9zM243 447l11 -127q-68 -14 -164 -14h-44v466h196v-126h-52v-208q27 3 53 9zM175 123v127h683v-341h-162v214h-521zM708 844h150v-562h-150v214h-39v-213h-147v543h147v-203h39v221z" />
<glyph unicode="&#xb550;" d="M669 465v-289h-147v650h147v-234h39v251h150v-691h-150v313h-39zM486 427l11 -128q-73 -13 -173 -13h-45v477h204v-126h-60v-219q26 3 63 9zM243 427l11 -127q-68 -14 -164 -14h-44v477h196v-126h-52v-219q27 3 53 9zM348 46h530v-127h-693v305h163v-178z" />
<glyph unicode="&#xb554;" d="M669 531v-159h-147v453h147v-167h39v185h150v-473h-150v161h-39zM486 529l11 -125q-68 -13 -173 -13h-45v401h204v-125h-60v-147q26 3 63 9zM243 529l11 -124q-63 -14 -165 -14h-43v401h196v-125h-52v-147q27 3 53 9zM347 38h533v-123h-693v270h511v31h-512v122h672v-267 h-511v-33z" />
<glyph unicode="&#xb55c;" d="M486 480l11 -128q-73 -13 -173 -13h-45v440h204v-126h-60v-182q26 3 63 9zM243 480l11 -127q-68 -14 -164 -14h-44v440h196v-126h-52v-182q27 3 53 9zM347 146v-106h353v106h-353zM188 -85v356h670v-356h-670zM708 843h150v-538h-150v207h-39v-201h-147v514h147v-186h39 v204z" />
<glyph unicode="&#xb55d;" d="M486 495l11 -128q-73 -13 -173 -13h-45v426h204v-126h-60v-168q26 3 63 9zM243 495l11 -127q-68 -14 -164 -14h-44v426h196v-126h-52v-168q27 3 53 9zM698 42v61h-346v-61h346zM698 225v69h160v-379h-666v379h160v-69h346zM708 843h150v-514h-150v192h-39v-187h-147v491 h147v-177h39v195z" />
<glyph unicode="&#xb55f;" d="M669 499v-202h-147v528h147v-199h39v217h150v-631h-150v287h-39zM486 454l11 -128q-73 -13 -173 -13h-45v465h204v-126h-60v-207q26 3 63 9zM243 453l11 -127q-68 -14 -164 -14h-44v466h196v-126h-52v-208q27 3 53 9zM600 261v-21q0 -72 68 -131t223 -77l-58 -124 q-220 29 -313 152q-93 -123 -314 -152l-58 124q155 18 223.5 77t68.5 131v21h160z" />
<glyph unicode="&#xb560;" d="M669 508v-192h-147v509h147v-190h39v208h150v-533h-150v198h-39zM486 482l11 -128q-73 -13 -173 -13h-45v440h204v-126h-60v-182q26 3 63 9zM243 482l11 -127q-68 -14 -164 -14h-44v440h196v-126h-52v-182q27 3 53 9zM745 275v-21q0 -175 167 -225l-79 -117 q-120 41 -172 149q-52 -114 -167 -158q-115 43 -168 155q-52 -105 -168 -146l-79 117q167 56 167 225v21h157v-20q0 -124 90 -195q93 74 93 195v20h159z" />
<glyph unicode="&#xb561;" d="M669 507v-201h-147v520h147v-192h39v209h150v-560h-150v224h-39zM486 469l11 -128q-73 -13 -173 -13h-45v441h204v-126h-60v-183q26 3 63 9zM243 469l11 -127q-68 -14 -164 -14h-44v441h200v-126h-56v-183q27 3 53 9zM525 26q89 0 130.5 15t41.5 48t-41.5 47.5 t-130.5 14.5q-173 0 -173 -62q0 -33 42 -48t131 -15zM525 274q156 0 246 -49t90 -136q0 -88 -90 -137t-246 -49t-246.5 49t-90.5 137q0 87 90.5 136t246.5 49z" />
<glyph unicode="&#xb5a0;" d="M211 635v-371q48 3 83 11l15 -130q-63 -13 -206 -13h-51v630h247v-127h-88zM498 635v-371q63 1 117 13l12 -129q-66 -16 -233 -16h-55v630h255v-127h-96zM677 843h162v-937h-162v492h-117v129h117v316z" />
<glyph unicode="&#xb5a1;" d="M610 459l11 -127q-38 -10 -82 -12.5t-152 -2.5h-54v460h263v-126h-104v-205q75 1 118 13zM296 458l11 -128q-70 -13 -214 -13h-51v460h251v-126h-92v-204q53 3 95 11zM163 134v127h674v-356h-160v229h-514zM675 843h162v-547h-162v195h-104v127h104v225z" />
<glyph unicode="&#xb5a4;" d="M576 602h99v242h162v-678h-162v309h-99v127zM610 429l11 -127q-38 -10 -82 -12.5t-152 -2.5h-54v489h263v-126h-104v-234q74 1 118 13zM296 428l11 -128q-66 -13 -214 -13h-51v489h251v-126h-92v-233q52 3 95 11zM335 46h525v-127h-687v305h162v-178z" />
<glyph unicode="&#xb5a8;" d="M567 660h108v183h162v-472h-162v170h-108v119zM611 522l10 -122q-38 -10 -82 -12.5t-153 -2.5h-53v419h263v-123h-104v-172q75 1 119 13zM300 521l11 -122q-76 -14 -218 -14h-51v419h251v-123h-92v-171q54 3 99 11zM330 38h529v-123h-692v271h507v31h-508v122h671v-267 h-507v-34z" />
<glyph unicode="&#xb5aa;" d="M611 512l11 -122q-39 -10 -83 -12.5t-153 -2.5h-53v427h263v-123h-104v-180q75 1 119 13zM300 511l11 -122q-76 -14 -218 -14h-51v427h251v-123h-92v-179q54 3 99 11zM300 67v-35q106 1 179 13l12 -117q-82 -14 -287 -14h-60v263h170v31h-171v117h326v-258h-169zM645 209 v-179h55v179h-55zM508 -86v411h329v-411h-329zM675 843h162v-482h-162v175h-108v119h108v188z" />
<glyph unicode="&#xb5ab;" d="M611 514l11 -122q-39 -10 -83 -12.5t-153 -2.5h-53v425h263v-123h-104v-178q75 1 119 13zM300 513l11 -122q-76 -14 -218 -14h-51v425h251v-123h-92v-177q54 3 99 11zM300 64v-32q109 3 177 15l14 -118q-81 -15 -287 -15h-60v260h170v28h-171v117h326v-255h-169zM694 36 v86h-42v-86h42zM694 240v87h143v-413h-328v413h143v-87h42zM675 843h162v-482h-162v175h-108v119h108v188z" />
<glyph unicode="&#xb5b0;" d="M610 477l11 -127q-38 -10 -82 -12.5t-152 -2.5h-54v451h263v-126h-104v-196q75 1 118 13zM301 476l10 -127q-75 -14 -217 -14h-52v451h251v-126h-92v-195q53 3 100 11zM333 153v-113h345v113h-345zM174 -85v363h663v-363h-663zM675 843h162v-533h-162v193h-104v127h104 v213z" />
<glyph unicode="&#xb5b1;" d="M610 485l11 -127q-38 -10 -82 -12.5t-152 -2.5h-54v451h263v-126h-104v-196q75 1 118 13zM297 484l11 -128q-70 -13 -215 -13h-51v451h251v-126h-92v-195q52 3 96 11zM677 42v62h-342v-62h342zM677 226v69h160v-380h-662v380h160v-69h342zM675 843h162v-514h-162v184 h-104v127h104v203z" />
<glyph unicode="&#xb5b3;" d="M571 618h104v225h162v-621h-162v269h-104v127zM610 453l11 -127q-38 -10 -82 -12.5t-152 -2.5h-54v469h263v-126h-104v-214q75 1 118 13zM300 452l11 -127q-76 -14 -217 -14h-52v469h251v-126h-92v-213q54 3 99 11zM574 261v-17q0 -70 69 -131.5t221 -79.5l-58 -125 q-222 28 -316 162q-98 -135 -315 -162l-58 125q78 10 137 34.5t91 55.5t47.5 62t15.5 59v17h166z" />
<glyph unicode="&#xb5b4;" d="M571 631h104v212h162v-528h-162v189h-104v127zM610 475l11 -127q-38 -10 -82 -12.5t-152 -2.5h-54v453h263v-126h-104v-198q75 1 118 13zM300 474l11 -127q-76 -14 -217 -14h-52v453h251v-126h-92v-197q54 3 99 11zM737 274v-11q0 -178 167 -229l-80 -116 q-120 41 -170 150q-55 -116 -168 -159q-115 43 -168 156q-52 -106 -167 -147l-80 116q167 57 167 229v11h157v-11q0 -128 90 -199q93 77 93 199v11h159z" />
<glyph unicode="&#xb5b5;" d="M571 625h104v218h162v-551h-162v206h-104v127zM610 466l11 -127q-38 -10 -82 -12.5t-152 -2.5h-54v457h263v-126h-104v-202q75 1 118 13zM300 465l11 -127q-76 -14 -217 -14h-52v457h251v-126h-92v-201q54 3 99 11zM505 27q88 0 130 15t42 48q0 62 -172 62t-172 -62 q0 -33 42 -48t130 -15zM505 275q156 0 246 -49t90 -136q0 -88 -90 -137t-246 -49t-246 49t-90 137q0 87 90 136t246 49z" />
<glyph unicode="&#xb5bb;" d="M579 670h96v173h162v-500h-162v208h-96v119zM609 535l10 -122q-39 -10 -82.5 -12.5t-151.5 -2.5h-53v413h262v-123h-103v-166q73 1 118 13zM300 534l11 -122q-76 -14 -218 -14h-51v413h252v-123h-93v-165q54 3 99 11zM495 10q57 0 81.5 4.5t24.5 18.5t-24.5 18.5 t-81.5 4.5t-81.5 -4.5t-24.5 -18.5t24.5 -18.5t81.5 -4.5zM495 164q131 0 205 -34t74 -97t-74 -97t-205 -34t-205 34t-74 97t74 97t205 34zM578 305h269v-120h-700v120h269v64h162v-64z" />
<glyph unicode="&#xb5bc;" d="M189 611v-355q30 4 49 8l11 -130q-67 -14 -160 -14h-44v618h196v-127h-52zM415 611v-357q36 3 73 10l10 -130q-73 -14 -180 -14h-47v618h208v-127h-64zM524 511v321h147v-886h-147v436h-74v129h74zM709 844h150v-938h-150v938z" />
<glyph unicode="&#xb5bd;" d="M455 614h71v213h147v-547h-147v207h-71v127zM485 445l12 -127q-73 -14 -179 -14h-46v472h207v-126h-63v-215q36 3 69 10zM239 445l11 -127q-67 -14 -161 -14h-43v472h192v-126h-48v-213q32 4 49 8zM175 119v127h683v-337h-162v210h-521zM708 843h150v-566h-150v566z" />
<glyph unicode="&#xb5c0;" d="M858 843v-710h-150v710h150zM455 588h71v238h147v-669h-147v304h-71v127zM485 410l12 -127q-73 -14 -179 -14h-46v497h207v-126h-63v-240q36 3 69 10zM239 410l11 -127q-67 -14 -161 -14h-43v497h192v-126h-48v-238q32 4 49 8zM350 46h531v-127h-693v301h162v-174z" />
<glyph unicode="&#xb5c4;" d="M858 843v-482h-150v482h150zM460 651h66v174h147v-458h-147v163h-66v121zM479 516l14 -125q-69 -13 -180 -13h-46v412h212v-123h-68v-160q30 1 68 9zM233 516l11 -125q-61 -13 -156 -13h-42v412h192v-123h-48v-159q10 2 43 8zM351 33h528v-123h-688v269h507v31h-508v122 h668v-267h-507v-32z" />
<glyph unicode="&#xb5cc;" d="M455 629h71v196h147v-514h-147v191h-71v127zM485 469l12 -127q-73 -14 -179 -14h-46v463h207v-126h-63v-206q36 3 69 10zM239 469l11 -127q-67 -14 -161 -14h-43v463h192v-126h-48v-204q32 4 49 8zM347 149v-109h353v109h-353zM188 -85v359h670v-359h-670zM708 843h150 v-538h-150v538z" />
<glyph unicode="&#xb5cd;" d="M456 645h70v180h147v-490h-147v183h-70v127zM486 491l12 -127q-74 -14 -180 -14h-46v449h208v-126h-64v-192q36 3 70 10zM239 491l11 -127q-67 -14 -161 -14h-43v449h192v-126h-48v-190q32 4 49 8zM698 42v64h-346v-64h346zM698 228v70h160v-383h-666v383h160v-70h346z M708 843h150v-514h-150v514z" />
<glyph unicode="&#xb5cf;" d="M858 843v-631h-150v631h150zM455 619h71v206h147v-523h-147v190h-71v127zM482 460l15 -127q-70 -17 -179 -17h-46v463h207v-126h-63v-204q29 3 66 11zM239 455l11 -127q-67 -14 -161 -14h-43v465h192v-126h-48v-206q32 4 49 8zM600 265v-21q0 -73 68 -133t223 -78 l-58 -125q-221 29 -313 154q-94 -126 -313 -154l-59 125q155 18 223 78t68 133v21h161z" />
<glyph unicode="&#xb5d0;" d="M858 843v-533h-150v533h150zM455 629h71v196h147v-509h-147v186h-71v127zM485 471l12 -127q-73 -14 -179 -14h-46v454h207v-126h-63v-197q36 3 69 10zM239 471l11 -127q-67 -14 -161 -14h-43v454h192v-126h-48v-195q32 4 49 8zM745 275v-21q0 -175 167 -225l-79 -117 q-120 41 -172 149q-52 -114 -167 -158q-115 43 -168 155q-52 -105 -168 -146l-79 117q167 56 167 225v21h157v-20q0 -125 89 -195q94 72 94 195v20h159z" />
<glyph unicode="&#xb5d1;" d="M858 843v-570h-150v570h150zM455 624h71v201h147v-523h-147v195h-71v127zM485 461l12 -127q-73 -14 -179 -14h-46v463h207v-126h-63v-206q36 3 69 10zM239 459l11 -127q-67 -14 -161 -14h-43v465h192v-126h-48v-206q32 4 49 8zM525 25q89 0 130.5 14t41.5 47t-41.5 47 t-130.5 14q-90 0 -131.5 -14t-41.5 -47t41.5 -47t131.5 -14zM525 269q156 0 246 -48.5t90 -134.5t-90 -134.5t-246 -48.5q-157 0 -247 48.5t-90 134.5t90 134.5t247 48.5z" />
<glyph unicode="&#xb5d8;" d="M218 641v-398q30 1 67 9l14 -130q-70 -13 -193 -13h-49v659h232v-127h-71zM488 641v-400q74 3 121 14l12 -130q-71 -16 -239 -16h-55v659h270v-127h-109zM676 843h162v-938h-162v380h-110v128h110v66h-110v128h110v236z" />
<glyph unicode="&#xb5ec;" d="M593 413l7 -78q-38 -10 -82 -12.5t-152 -2.5h-54v463h255v-126h-96v-208q73 1 116 13v74h88v37h-88v123h88v147h162v-542h-162v112h-82zM277 460l10 -127q-65 -13 -196 -13h-49v463h232v-126h-73v-207q39 3 76 10zM737 274v-11q0 -178 167 -229l-80 -116 q-120 41 -170 150q-55 -114 -167 -160q-117 44 -168 157q-54 -106 -168 -147l-80 116q167 57 167 229v11h157v-11q0 -127 91 -199q91 76 91 199v11h160z" />
<glyph unicode="&#xb610;" d="M831 460v-127h-338v440h333v-127h-172v-186h177zM440 482l10 -130q-101 -19 -291 -19h-63v440h338v-127h-177v-181q106 3 183 17zM538 137h347v-129h-850v129h342v160h161v-160z" />
<glyph unicode="&#xb611;" d="M125 83v127h651v-305h-162v178h-489zM542 401h343v-127h-850v127h345v77q-71 -7 -209 -7h-60v338h325v-126h-164v-86q95 3 167 16l8 -79h39v275h322v-126h-161v-86h163v-126h-268v-70z" />
<glyph unicode="&#xb614;" d="M302 214v-168h488v-127h-650v295h162zM542 392h342v-127h-849v127h345v77q-69 -8 -209 -8h-60v344h325v-126h-164v-92q90 3 166 18l9 -80h39v280h322v-126h-161v-92h163v-126h-268v-69z" />
<glyph unicode="&#xb618;" d="M290 62v-33h518v-120h-678v263h495v30h-496v118h656v-258h-495zM540 480h345v-125h-850v125h344v53q-70 -8 -208 -8h-60v293h326v-123h-165v-46q96 3 168 16l7 -68h39v221h322v-123h-161v-47h163v-123h-270v-45z" />
<glyph unicode="&#xb625;" d="M458 23q86 0 125 12t39 40t-39 40t-125 12q-87 0 -126 -12t-39 -40t39 -40t126 -12zM458 248q153 0 240.5 -45.5t87.5 -127.5t-87.5 -127.5t-240.5 -45.5q-154 0 -241.5 45.5t-87.5 127.5t87.5 127.5t241.5 45.5zM542 410h342v-127h-849v127h345v63q-71 -7 -209 -7h-60 v343h325v-126h-164v-91q95 3 167 16l8 -79h39v280h322v-126h-161v-91h163v-126h-268v-56z" />
<glyph unicode="&#xb62c;" d="M591 497v-126h-254v385h251v-127h-92v-132h95zM302 511l11 -124q-75 -16 -206 -16h-49v385h243v-127h-84v-130q39 3 85 12zM403 345v-134q114 5 191 14l10 -117q-210 -33 -560 -29l-18 129h215v137h162zM896 478v-132h-100v-440h-162v937h162v-365h100z" />
<glyph unicode="&#xb634;" d="M598 487l8 -108q-214 -29 -572 -29l-13 121q142 0 216 1v42q-38 -3 -125 -3h-48v290h243v-119h-84v-50q46 3 84 11l7 -71h28v229h235v-119h-76v-54h76v-117h-178v-36q103 3 199 12zM294 59v-29h523v-121h-686v262h495v28h-496v120h659v-260h-495zM789 652h108v-129h-108 v-174h-162v495h162v-192z" />
<glyph unicode="&#xb648;" d="M499 495v-124h-209v383h209v-125h-64v-134h64zM260 507l11 -122q-67 -14 -170 -14h-44v383h204v-125h-60v-131q23 2 59 9zM352 346v-105q99 8 149 14l8 -116q-165 -34 -469 -34l-17 129q111 0 177 2v110h152zM720 844h150v-937h-150v455h-41v-418h-147v886h147v-340h41 v354z" />
<glyph unicode="&#xb664;" d="M626 498v-126h-253v384h250v-127h-91v-131h94zM335 513l11 -125q-76 -16 -211 -16h-50v384h243v-127h-84v-129q45 3 91 13zM438 345v-130q122 5 198 15l11 -117q-222 -36 -589 -32l-19 129h71.5h88.5h77v135h162zM676 843h162v-937h-162v937z" />
<glyph unicode="&#xb668;" d="M821 843v-691h-162v691h162zM620 389l11 -114q-217 -31 -574 -31l-19 126q149 0 228 1v77q-42 -5 -137 -5h-49v336h239v-126h-80v-82q38 3 84 12l8 -84h27v280h243v-126h-84v-84h90v-126h-179v-67q110 5 192 13zM336 46h507v-127h-669v281h162v-154z" />
<glyph unicode="&#xb69c;" d="M823 522l-1 -127h-333v395h330v-127h-169v-141h173zM445 541l10 -127q-99 -19 -287 -19h-62v395h333v-127h-172v-139q102 3 178 17zM884 333l1 -129h-347v-299h-162v299h-342v129h850z" />
<glyph unicode="&#xb69d;" d="M810 602v-126h-324v332h322v-126h-157v-80h159zM442 618l13 -124q-93 -18 -281 -18h-60v332h325v-126h-160v-80q92 3 163 16zM884 300h-343v-78h235v-317h-162v191h-489v126h254v78h-344v127h849v-127z" />
<glyph unicode="&#xb6a0;" d="M810 575v-126h-324v357h322v-126h-161v-105h163zM445 592l10 -125q-93 -18 -281 -18h-60v357h325v-126h-164v-105q97 3 170 17zM288 206v-160h501v-127h-663v287h162zM35 395h849v-127h-336v-138h-162v138h-351v127z" />
<glyph unicode="&#xb6a4;" d="M810 648v-123h-324v293h322v-123h-161v-47h163zM444 666l13 -122q-98 -19 -283 -19h-60v293h325v-123h-164v-46q97 3 169 17zM884 364h-343v-44h244v-258h-495v-33h518v-120h-678v263h495v30h-496v118h250v44h-344v125h849v-125z" />
<glyph unicode="&#xb6ab;" d="M810 651v-123h-324v290h322v-123h-161v-44h163zM444 669l13 -122q-98 -19 -283 -19h-60v290h325v-123h-164v-43q99 3 169 17zM652 6q36 0 36 19t-36 19t-36 -19t36 -19zM652 147q77 0 124 -33t47 -89t-47.5 -89t-123.5 -33t-123.5 33t-47.5 89t47 89t124 33zM731 333v-64 h126v-111h-408v111h126v64h156zM34 495h850v-126h-349v-76h-112v-232h-165v-31q132 1 192 13l14 -115q-49 -10 -103.5 -12t-194.5 -2h-61v254h165v29h-165v115h269v57h-340v126z" />
<glyph unicode="&#xb6ac;" d="M810 605v-126h-324v329h322v-126h-161v-77h163zM442 621l13 -124q-93 -18 -281 -18h-60v329h329v-126h-168v-77q95 3 167 16zM628 40v74h-338v-74h338zM886 305h-345v-66h246v-324h-656v324h248v66h-342v127h849v-127z" />
<glyph unicode="&#xb6b1;" d="M810 605v-126h-324v330h322v-126h-161v-78h163zM444 622l13 -125q-93 -18 -282 -18h-61v330h329v-126h-168v-78q97 3 169 17zM622 78q0 29 -39 41.5t-125 12.5q-87 0 -126 -12.5t-39 -41.5t39 -41t126 -12q86 0 125 12t39 41zM884 309h-343v-59q117 -12 181 -56.5 t64 -115.5q0 -83 -87.5 -129t-240.5 -46q-154 0 -241.5 46t-87.5 129q0 72 65.5 116.5t184.5 55.5v59h-345v125h850v-125z" />
<glyph unicode="&#xb6d4;" d="M490 557v-125h-207v343h203v-126h-63v-92h67zM255 569l10 -122q-66 -14 -168 -14h-44v342h200v-126h-60v-90q32 3 62 10zM502 404l9 -114q-67 -12 -167 -22v-292h-152v284q-75 -4 -155 -4l-15 126q302 0 480 22zM535 230v602h147v-887h-147v162h-137v123h137zM720 844 h150v-938h-150v938z" />
<glyph unicode="&#xb6f0;" d="M621 553v-126h-258v356h254v-127h-95v-103h99zM329 568l11 -125q-77 -16 -214 -16h-51v356h247v-127h-88v-101q48 3 95 13zM637 381l9 -117q-114 -19 -224 -27v-305h-162v297q-37 -1 -208 -1l-18 130h37q380 0 566 23zM674 844h162v-938h-162v938z" />
<glyph unicode="&#xb6f4;" d="M837 843v-706h-162v706h162zM619 584v-125h-253v329h247v-125h-88v-79h94zM334 600l11 -125q-76 -16 -211 -16h-50v329h243v-125h-84v-76q45 3 91 13zM297 46h554v-127h-715v279h145v86q-105 -4 -225 -4l-18 127q389 0 603 26l8 -115q-103 -16 -206 -24v-130h-146v-118z " />
<glyph unicode="&#xb6f8;" d="M837 845v-496h-162v496h162zM619 641v-121h-249v286h247v-121h-88v-44h90zM339 656l9 -120q-76 -16 -212 -16h-49v286h244v-121h-85v-42q46 3 93 13zM327 28h532v-119h-692v261h510v31h-511v117h117v49q-75 -1 -220 -1l-17 120q414 0 597 16l8 -109q-99 -13 -206 -19v-56 h392v-257h-510v-33z" />
<glyph unicode="&#xb700;" d="M619 612v-125h-249v305h247v-125h-88v-55h90zM338 628l10 -125q-76 -16 -211 -16h-50v305h244v-125h-85v-52q44 3 92 13zM678 40v74h-348v-74h348zM445 331v-92h392v-324h-666v324h113v85q-100 -4 -220 -4l-17 123q390 0 592 18l9 -110q-86 -11 -203 -20zM675 842h162 v-565h-162v565z" />
<glyph unicode="&#xb701;" d="M619 625v-125h-249v292h247v-125h-88v-42h90zM339 639l9 -122q-75 -17 -211 -17h-50v292h244v-125h-85v-41q46 3 93 13zM676 40v41h-348v-41h348zM676 201v61h161v-347h-669v347h117v77q-101 -4 -221 -4l-17 123q391 0 594 18l8 -110q-85 -11 -204 -20v-105h-117v-40h348 zM675 843h162v-542h-162v542z" />
<glyph unicode="&#xb705;" d="M838 842v-578h-162v578h162zM619 604v-125h-249v307h247v-125h-88v-57h90zM338 620l10 -125q-76 -16 -211 -16h-50v307h244v-125h-85v-54q44 3 92 13zM507 24q171 0 171 51t-171 51t-171 -51t171 -51zM445 321v-75q40 2 62 2q155 0 245.5 -46t90.5 -127t-90.5 -127 t-245.5 -46t-245.5 46t-90.5 127q0 91 113 138v101q-100 -4 -221 -4l-16 123q390 0 592 18l9 -110q-86 -11 -203 -20z" />
<glyph unicode="&#xb728;" d="M825 420v-127h-338v467h337v-127h-176v-213h177zM445 439l10 -127q-101 -19 -291 -19h-62v467h341v-127h-180v-211q105 3 182 17zM34 143h850v-130h-850v130z" />
<glyph unicode="&#xb729;" d="M810 595v-126h-324v337h322v-126h-157v-85h159zM442 611l13 -124q-93 -18 -281 -18h-60v337h325v-126h-160v-85q92 3 163 16zM125 92v126h651v-313h-162v187h-489zM35 410h850v-127h-850v127z" />
<glyph unicode="&#xb72c;" d="M810 572v-126h-324v360h322v-126h-157v-108h159zM442 588l13 -124q-93 -18 -281 -18h-60v360h325v-126h-160v-108q92 3 163 16zM296 207v-161h496v-127h-658v288h162zM35 386h849v-127h-849v127z" />
<glyph unicode="&#xb72f;" d="M810 597v-126h-324v334h322v-126h-157v-82h159zM442 613l13 -124q-93 -18 -281 -18h-60v334h325v-126h-160v-82q92 3 163 16zM291 117v-76h502v-126h-663v328h654v-126h-493zM35 423h849v-127h-849v127z" />
<glyph unicode="&#xb730;" d="M810 646v-123h-324v293h322v-123h-161v-47h163zM444 664l13 -122q-98 -19 -283 -19h-60v293h325v-123h-164v-46q97 3 169 17zM290 62v-33h518v-120h-678v263h495v30h-496v118h656v-258h-495zM35 486h850v-125h-850v125z" />
<glyph unicode="&#xb738;" d="M810 604v-126h-324v327h322v-126h-161v-75h163zM442 620l13 -124q-93 -18 -281 -18h-60v327h329v-126h-168v-75q95 3 167 16zM290 114v-74h338v74h-338zM131 -85v324h656v-324h-656zM35 427h849v-127h-849v127z" />
<glyph unicode="&#xb739;" d="M810 610v-126h-324v325h322v-126h-161v-73h163zM442 626l13 -124q-93 -18 -281 -18h-60v325h329v-126h-168v-73q95 3 167 16zM625 42v52h-335v-52h335zM625 216v62h161v-363h-656v363h160v-62h335zM37 443h849v-127h-849v127z" />
<glyph unicode="&#xb73b;" d="M810 591v-126h-324v336h322v-126h-161v-84h163zM442 607l13 -124q-93 -18 -281 -18h-60v336h329v-126h-168v-84q95 3 167 16zM544 249v-11q0 -72 67.5 -129.5t223.5 -75.5l-58 -123q-225 27 -315 151q-92 -124 -316 -151l-57 123q156 18 223 75.5t67 129.5v11h165z M35 419h849v-129h-849v129z" />
<glyph unicode="&#xb744;" d="M617 479v-127h-254v400h251v-127h-92v-146h95zM325 496l11 -128q-76 -16 -210 -16h-51v400h243v-127h-84v-142q45 3 91 13zM57 114l-18 129q404 -2 592 20l11 -117q-220 -36 -585 -32zM668 843h162v-938h-162v938z" />
<glyph unicode="&#xb748;" d="M831 844v-683h-162v683h162zM609 563v-126h-245v333h239v-126h-80v-81h86zM331 577l12 -124q-76 -16 -209 -16h-50v333h243v-126h-84v-79q50 3 88 12zM633 400l11 -114q-222 -32 -586 -32l-20 126q401 0 595 20zM335 46h516v-127h-678v281h162v-154z" />
<glyph unicode="&#xb74c;" d="M828 845v-491h-162v491h162zM614 639v-123h-245v290h243v-123h-84v-44h86zM338 655l9 -122q-82 -17 -217 -17h-51v290h251v-123h-92v-41q50 3 100 13zM635 497l8 -109q-217 -31 -587 -29l-16 120q412 0 595 18zM317 28h533v-119h-693v262h511v34h-512v117h672v-260h-511 v-34z" />
<glyph unicode="&#xb754;" d="M828 842v-565h-162v565h162zM620 592v-125h-245v321h243v-125h-84v-71h86zM346 606l10 -122q-83 -17 -218 -17h-51v321h251v-125h-92v-70q50 3 100 13zM634 436l8 -110q-223 -31 -577 -33l-16 122q376 0 585 21zM670 40v74h-343v-74h343zM168 239h661v-324h-661v324z" />
<glyph unicode="&#xb755;" d="M620 612v-125h-245v311h243v-125h-84v-61h86zM346 626l10 -122q-83 -17 -218 -17h-51v311h251v-125h-92v-60q50 3 100 13zM634 464l8 -110q-223 -31 -577 -33l-16 122q376 0 585 21zM667 42v50h-346v-50h346zM667 214v64h160v-363h-666v363h160v-64h346zM665 843h162 v-533h-162v533z" />
<glyph unicode="&#xb760;" d="M230 626v-361q46 3 90 13l12 -130q-73 -16 -212 -16h-51v621h255v-127h-94zM517 626v-362q71 3 120 13l11 -130q-71 -15 -237 -15h-55v621h274v-127h-113zM675 843h162v-937h-162v937z" />
<glyph unicode="&#xb764;" d="M836 843v-677h-162v677h162zM635 438l11 -124q-70 -15 -234 -15h-54v468h266v-126h-107v-216q69 3 118 13zM325 437l11 -125q-71 -13 -218 -13h-51v468h255v-126h-96v-215q54 3 99 11zM349 46h507v-127h-669v311h162v-184z" />
<glyph unicode="&#xb768;" d="M838 843v-463h-162v463h162zM639 544l11 -122q-38 -11 -83 -13.5t-155 -2.5h-54v386h266v-123h-107v-139q73 1 122 14zM325 542l11 -122q-76 -14 -218 -14h-51v386h255v-123h-96v-138q54 3 99 11zM340 38h517v-124h-677v275h498v34h-499v122h659v-271h-498v-36z" />
<glyph unicode="&#xb770;" d="M634 490l12 -127q-75 -15 -234 -15h-54v435h266v-126h-107v-180q69 3 117 13zM325 487l11 -127q-76 -14 -217 -14h-52v437h255v-126h-96v-181q54 3 99 11zM349 153v-113h330v113h-330zM190 -85v363h647v-363h-647zM675 843h162v-528h-162v528z" />
<glyph unicode="&#xb771;" d="M635 499l11 -124q-70 -15 -234 -15h-54v423h266v-126h-107v-171q69 3 118 13zM324 498l11 -125q-70 -13 -217 -13h-51v423h255v-126h-96v-170q54 3 98 11zM674 42v63h-327v-63h327zM674 227v67h160v-379h-647v379h160v-67h327zM675 843h162v-514h-162v514z" />
<glyph unicode="&#xb773;" d="M837 844v-622h-162v622h162zM635 470l11 -124q-70 -15 -234 -15h-54v442h266v-126h-107v-190q69 3 118 13zM325 469l11 -125q-71 -13 -218 -13h-51v442h255v-126h-96v-189q54 3 99 11zM574 275v-30q0 -71 69 -132.5t221 -79.5l-58 -125q-222 28 -316 162 q-98 -135 -314 -162l-59 125q78 10 137.5 34.5t91 55.5t47 62t15.5 60v30h166z" />
<glyph unicode="&#xb775;" d="M837 843v-551h-162v551h162zM634 471l12 -127q-75 -15 -234 -15h-54v440h266v-126h-114v-185q64 1 124 13zM325 468l10 -127q-75 -14 -216 -14h-52v442h255v-126h-103v-187q60 3 106 12zM510 26q87 0 128 15t41 48q0 62 -169 62q-87 0 -128 -14.5t-41 -47.5t41 -48 t128 -15zM510 274q154 0 243 -49t89 -136q0 -88 -89 -137t-243 -49t-243 49t-89 137q0 87 89 136t243 49z" />
<glyph unicode="&#xb77c;" d="M234 391v-143q182 2 331 27l15 -130q-168 -29 -425 -29h-81v401h275v125h-276v127h436v-378h-275zM904 500v-132h-124v-466h-162v943h162v-345h124z" />
<glyph unicode="&#xb77d;" d="M65 608h271v59h-272v127h432v-305h-271v-63q220 3 343 27l15 -127q-142 -28 -436 -28h-82v310zM145 108v126h635v-329h-162v203h-473zM897 629v-131h-117v-225h-162v570h162v-214h117z" />
<glyph unicode="&#xb780;" d="M568 436l15 -128q-142 -28 -436 -28h-82v318h271v64h-272v127h432v-310h-271v-71q221 3 343 28zM327 209v-163h483v-127h-645v290h162zM780 583h117v-131h-117v-300h-162v691h162v-260z" />
<glyph unicode="&#xb784;" d="M570 513l13 -120q-86 -15 -178 -19.5t-259 -4.5h-81v274h271v37h-272v121h432v-270h-271v-40q220 2 345 22zM316 64v-34h495v-121h-655v267h464v32h-465v119h625v-263h-464zM780 672h117v-130h-117v-184h-162v486h162v-172z" />
<glyph unicode="&#xb78c;" d="M568 468l15 -128q-142 -28 -436 -28h-82v305h271v55h-272v127h432v-301h-271v-58q221 3 343 28zM317 125v-85h305v85h-305zM158 -85v335h622v-335h-622zM897 632v-131h-117v-215h-162v557h162v-211h117z" />
<glyph unicode="&#xb78d;" d="M568 487l15 -127q-142 -28 -436 -28h-82v297h271v48h-272v127h432v-294h-271v-50q220 3 343 27zM620 42v57h-302v-57h302zM620 221v67h160v-373h-622v373h160v-67h302zM897 649v-131h-117v-194h-162v519h162v-194h117z" />
<glyph unicode="&#xb78f;" d="M65 600h271v62h-272v127h432v-307h-271v-63q220 3 343 27l15 -127q-142 -28 -436 -28h-82v309zM553 249v-17q0 -32 14 -61.5t44.5 -58t88 -50t136.5 -30.5l-59 -124q-214 27 -304 147q-92 -120 -304 -147l-59 124q150 17 216 74t66 126v17h161zM780 614h117v-134h-117 v-268h-162v631h162v-229z" />
<glyph unicode="&#xb790;" d="M336 626v51h-272v127h432v-297h-271v-52q220 3 343 27l15 -127q-142 -28 -436 -28h-82v299h271zM718 273v-11q0 -177 165 -229l-79 -116q-122 43 -169 150q-53 -114 -168 -159q-115 43 -168 156q-51 -106 -165 -147l-80 116q165 58 165 229v11h157v-11q0 -127 90 -199 q92 76 92 199v11h160zM780 643h117v-131h-117v-207h-162v538h162v-200z" />
<glyph unicode="&#xb791;" d="M65 611h271v52h-272v127h432v-298h-271v-54q220 3 343 27l15 -127q-142 -28 -436 -28h-82v301zM467 25q85 0 124 14t39 47t-39 47t-124 14t-124.5 -14t-39.5 -47t39.5 -47t124.5 -14zM467 269q149 0 235.5 -48.5t86.5 -134.5t-86.5 -134.5t-235.5 -48.5t-236 48.5 t-87 134.5t86.5 134.5t236.5 48.5zM780 634h117v-131h-117v-219h-162v560h162v-210z" />
<glyph unicode="&#xb792;" d="M65 630h275v45h-276v127h436v-291h-275v-48q220 3 343 27l15 -127q-142 -28 -436 -28h-82v295zM790 154h-219q22 -46 86 -81t174 -46l-56 -121q-214 24 -303 145q-88 -119 -305 -143l-55 121q212 21 261 125h-220v125h637v-125zM780 644h117v-131h-117v-198h-162v528h162 v-199z" />
<glyph unicode="&#xb796;" d="M568 481l15 -127q-142 -28 -436 -28h-82v298h271v50h-272v127h432v-295h-271v-52q220 3 343 27zM417 155v-118h118v118h-118zM694 155v-118h111v-123h-655v123h108v118h-100v123h637v-123h-101zM780 643h117v-131h-117v-197h-162v528h162v-200z" />
<glyph unicode="&#xb797;" d="M65 655h266v35h-267v121h432v-268h-266v-37q216 2 340 22l13 -120q-86 -15 -177.5 -19.5t-258.5 -4.5h-82v271zM462 9q64 0 89.5 4.5t25.5 17.5q0 14 -25.5 18.5t-89.5 4.5q-65 0 -90 -4.5t-25 -18.5q0 -13 25 -17.5t90 -4.5zM462 161q129 0 199.5 -33.5t70.5 -96.5 t-70.5 -96t-199.5 -33t-199.5 33t-70.5 96t70.5 96.5t199.5 33.5zM543 363v-61h252v-119h-664v119h250v61h162zM780 659h117v-130h-117v-190h-162v504h162v-184z" />
<glyph unicode="&#xb798;" d="M214 377v-141q118 2 227 18l11 -129q-126 -21 -326 -21h-68v399h201v128h-202v127h358v-381h-201zM693 844h153v-937h-153v463h-59v-422h-150v882h150v-332h59v346z" />
<glyph unicode="&#xb799;" d="M452 437l12 -125q-104 -19 -327 -19h-67v304h201v60h-202v124h358v-300h-201v-62q134 2 226 18zM186 99v127h654v-321h-162v194h-492zM687 844h153v-584h-153v230h-47v-224h-150v560h150v-209h47v227z" />
<glyph unicode="&#xb79c;" d="M640 456v-293h-150v664h150v-243h47v260h153v-696h-153v308h-47zM452 414l12 -126q-111 -19 -327 -19h-67v311h201v66h-202v124h358v-306h-201v-68q134 2 226 18zM359 46h502v-127h-664v295h162v-168z" />
<glyph unicode="&#xb7a0;" d="M640 532v-177h-150v472h150v-170h47v187h153v-496h-153v184h-47zM452 506l12 -122q-111 -15 -327 -15h-67v276h201v34h-202v122h358v-271h-201v-38q128 2 226 14zM353 30h509v-121h-669v263h487v29h-487v118h647v-258h-487v-31z" />
<glyph unicode="&#xb7a8;" d="M452 462l12 -125q-104 -19 -327 -19h-67v297h201v52h-202v124h358v-292h-201v-55q134 2 226 18zM352 132v-92h330v92h-330zM193 -85v342h647v-342h-647zM687 844h153v-552h-153v213h-47v-207h-150v528h150v-194h47v212z" />
<glyph unicode="&#xb7a9;" d="M452 491l12 -125q-104 -19 -327 -19h-67v287h201v42h-202v124h358v-282h-201v-45q134 2 226 18zM680 42v59h-330v-59h330zM680 223v62h160v-370h-650v370h160v-62h330zM687 844h153v-523h-153v195h-47v-192h-150v504h150v-185h47v201z" />
<glyph unicode="&#xb7ab;" d="M640 500v-206h-150v532h150v-199h47v217h153v-626h-153v282h-47zM451 442l13 -125q-108 -21 -327 -21h-67v303h201v59h-202v124h358v-299h-201v-61q130 1 225 20zM590 256v-13q0 -33 14.5 -64.5t45.5 -61.5t89.5 -53t138.5 -32l-63 -124q-215 30 -305 154 q-91 -124 -306 -154l-62 124q80 9 138.5 32t89.5 53t45.5 61.5t14.5 64.5v13h160z" />
<glyph unicode="&#xb7ac;" d="M640 498v-200h-150v528h150v-201h47v218h153v-551h-153v206h-47zM70 614h201v49h-202v124h358v-289h-201v-52q134 2 226 18l12 -125q-104 -19 -327 -19h-67v294zM745 261v-13q0 -167 167 -214l-78 -116q-121 40 -172 144q-54 -111 -167 -154q-114 42 -167 151 q-52 -102 -169 -141l-77 116q166 54 166 214v13h157v-13q0 -119 89 -186q91 69 91 186v13h160z" />
<glyph unicode="&#xb7ad;" d="M640 499v-196h-150v523h150v-200h47v218h153v-570h-153v225h-47zM452 458l12 -125q-104 -19 -327 -19h-67v295h201v50h-202v124h358v-290h-201v-53q134 2 226 18zM515 25q167 0 167 60t-167 60q-166 0 -166 -60t166 -60zM515 267q150 0 239.5 -49t89.5 -133t-89.5 -133 t-239.5 -49q-149 0 -238.5 49t-89.5 133t89.5 133t238.5 49z" />
<glyph unicode="&#xb7b4;" d="M234 391v-143q182 2 331 27l15 -130q-168 -29 -425 -29h-81v401h275v125h-276v127h436v-378h-275zM897 494h-117v-132h117v-131h-117v-328h-162v942h162v-220h117v-131z" />
<glyph unicode="&#xb7b5;" d="M65 608h271v59h-272v127h432v-305h-271v-63q220 3 343 27l15 -127q-142 -28 -436 -28h-82v310zM145 108v126h635v-329h-162v203h-473zM896 596h-116v-73h116v-130h-116v-120h-162v571h162v-118h116v-130z" />
<glyph unicode="&#xb7b8;" d="M568 432l15 -128q-142 -28 -436 -28h-82v320h271v66h-272v127h432v-312h-271v-73q221 3 343 28zM327 209v-163h483v-127h-645v290h162zM897 564h-117v-93h117v-130h-117v-189h-162v691h162v-149h117v-130z" />
<glyph unicode="&#xb7c7;" d="M65 600h271v62h-272v127h432v-307h-271v-63q220 3 343 27l15 -127q-142 -28 -436 -28h-82v309zM553 249v-17q0 -32 14 -61.5t44.5 -58t88 -50t136.5 -30.5l-59 -124q-214 27 -304 147q-92 -120 -304 -147l-59 124q150 17 216 74t66 126v17h161zM897 577h-117v-82h117 v-130h-117v-153h-162v631h162v-136h117v-130z" />
<glyph unicode="&#xb7c9;" d="M65 611h271v52h-272v127h432v-298h-271v-54q220 3 343 27l15 -127q-142 -28 -436 -28h-82v301zM467 25q85 0 124 14t39 47t-39 47t-124 14t-124.5 -14t-39.5 -47t39.5 -47t124.5 -14zM467 269q149 0 235.5 -48.5t86.5 -134.5t-86.5 -134.5t-235.5 -48.5t-236 48.5 t-87 134.5t86.5 134.5t236.5 48.5zM896 599h-116v-68h117v-130h-117v-122h-162v566h162v-116h116v-130z" />
<glyph unicode="&#xb7ec;" d="M226 404v-157q191 3 323 25l13 -131q-164 -25 -416 -25h-80v413h264v114h-265v126h425v-365h-264zM667 845h162v-943h-162v488h-129v129h129v326z" />
<glyph unicode="&#xb7ed;" d="M556 434l11 -129q-138 -21 -418 -21h-80v317h267v63h-268v127h428v-309h-267v-70q203 2 327 22zM177 99v127h651v-321h-162v194h-489zM666 843h162v-579h-162v240h-131v127h131v212z" />
<glyph unicode="&#xb7f0;" d="M666 152v343h-130v134h130v214h162v-691h-162zM553 417l12 -128q-139 -21 -416 -21h-80v320h267v68h-268v127h428v-314h-267v-73q199 2 324 21zM355 46h494v-127h-656v289h162v-162z" />
<glyph unicode="&#xb7f4;" d="M666 357v202h-131v126h131v158h162v-486h-162zM553 512l12 -121q-127 -20 -416 -20h-80v274h267v37h-268v121h428v-271h-267v-39q208 2 324 19zM352 30h500v-121h-660v265h476v34h-477v119h637v-264h-476v-33z" />
<glyph unicode="&#xb7fc;" d="M556 460l11 -129q-138 -21 -418 -21h-80v307h267v57h-268v127h428v-302h-267v-61q203 2 327 22zM348 132v-92h321v92h-321zM189 -85v342h639v-342h-639zM666 843h162v-552h-162v241h-131v127h131v184z" />
<glyph unicode="&#xb7fd;" d="M556 484l11 -129q-138 -21 -418 -21h-80v299h267v51h-268v127h428v-296h-267v-53q203 2 327 22zM668 42v57h-318v-57h318zM668 221v64h160v-370h-638v370h160v-64h318zM666 843h162v-523h-162v224h-131v127h131v172z" />
<glyph unicode="&#xb7ff;" d="M666 208v309h-131v127h131v199h162v-635h-162zM69 602h267v68h-268v127h428v-314h-267v-68q192 3 322 31l16 -126q-143 -33 -418 -33h-80v315zM585 249v-13q0 -32 14 -62.5t45 -60t89 -51t138 -30.5l-58 -124q-219 29 -308 150q-91 -121 -309 -150l-58 124 q79 9 137.5 30.5t89.5 51t45 60t14 62.5v13h161z" />
<glyph unicode="&#xb800;" d="M666 310v233h-131v127h131v173h162v-533h-162zM69 628h267v53h-268v127h428v-298h-267v-56q203 2 327 22l11 -129q-138 -21 -418 -21h-80v302zM739 274v-11q0 -178 166 -229l-79 -116q-120 41 -171 150q-53 -115 -168 -159q-115 43 -168 156q-52 -106 -167 -147l-79 116 q166 57 166 229v11h157v-11q0 -127 90 -199q93 77 93 199v11h160z" />
<glyph unicode="&#xb801;" d="M666 278v247h-131v127h131v191h162v-565h-162zM556 450l11 -129q-138 -21 -418 -21h-80v309h267v59h-268v127h428v-304h-267v-63q203 2 327 22zM507 23q86 0 125.5 14t39.5 45q0 32 -39.5 46t-124.5 14q-86 0 -125.5 -14t-39.5 -46q0 -31 39.5 -45t124.5 -14zM508 263 q152 0 239 -48t87 -133q0 -84 -87.5 -132t-238.5 -48q-152 0 -239.5 48t-87.5 132q0 85 87.5 133t239.5 48z" />
<glyph unicode="&#xb807;" d="M666 342v227h-131v126h131v148h162v-501h-162zM552 519l13 -120q-131 -23 -416 -23h-80v273h267v38h-268v121h428v-271h-267v-39q202 2 323 21zM506 11q68 0 92 4t24 18t-24 18t-91 4q-68 0 -92 -4t-24 -18t24 -18t91 -4zM507 164q132 0 201.5 -33t69.5 -98t-69.5 -98 t-201.5 -33q-272 0 -272 131t272 131zM587 303h251v-119h-664v119h251v57h162v-57z" />
<glyph unicode="&#xb808;" d="M214 381v-131q131 3 233 21l13 -130q-131 -23 -333 -23h-69v388h174v125h-175v126h331v-376h-174zM502 533v297h149v-883h-149v456h-80v130h80zM693 844h153v-938h-153v938z" />
<glyph unicode="&#xb809;" d="M496 264v239h-68v128h68v193h150v-560h-150zM450 431l14 -124q-104 -19 -327 -19h-67v305h173v58h-174v124h330v-298h-173v-63q130 2 224 17zM194 99v127h646v-321h-162v194h-484zM687 844h153v-584h-153v584z" />
<glyph unicode="&#xb80c;" d="M840 844v-706h-153v706h153zM496 158v337h-68v128h68v203h150v-668h-150zM450 403l14 -124q-104 -19 -327 -19h-67v317h173v75h-174v124h330v-315h-173v-75q130 2 224 17zM359 46h502v-127h-664v286h162v-159z" />
<glyph unicode="&#xb810;" d="M840 844v-496h-153v496h153zM496 356v203h-68v126h68v143h150v-472h-150zM447 505l13 -121q-103 -20 -324 -20h-66v280h173v33h-174v122h330v-270h-173v-42q135 3 221 18zM353 30h509v-121h-669v263h487v29h-487v118h647v-258h-487v-31z" />
<glyph unicode="&#xb818;" d="M496 287v227h-68v128h68v182h150v-537h-150zM450 447l14 -124q-104 -19 -327 -19h-67v302h173v57h-174v124h330v-297h-173v-60q130 2 224 17zM352 125v-85h330v85h-330zM193 -85v335h647v-335h-647zM687 844h153v-560h-153v560z" />
<glyph unicode="&#xb819;" d="M496 320v211h-68v128h68v165h150v-504h-150zM440 474l16 -124q-103 -19 -320 -19h-66v288h173v44h-174v124h330v-284h-173v-46q124 2 214 17zM680 42v57h-327v-57h327zM680 221v60h160v-366h-647v366h160v-60h327zM687 844h153v-528h-153v528z" />
</font>
</defs>
</svg>
